conanlcg
超级版主

[2006] [其他] [剧情] [WEB-1080P] 盲者之国 Land.of.the.Blind.2006.1080p.AMZN.WEBRip.DDP2.0.x264-monkee 4.37GB

-->

帖子完整标题:盲者之国 Land.of.the.Blind.2006.1080p.AMZN.WEBRip.DDP2.0.x264-monkee 4.37GB




◎译  名 盲者之国
◎片  名 Land of the Blind
◎年  代 2006
◎产  地 英国 / 美国
◎类  别 剧情
◎语  言 英语
◎上映日期 2006-01-31
◎IMDb评分 6.5/10 from 3478 users
◎IMDb链接 https://www.imdb.com/title/tt0433405
◎豆瓣评分 8.2/10 from 493 users
◎豆瓣链接 https://movie.douban.com/subject/1776771/
◎片  长 USA: 110 分钟(Cannes Film Festival)
◎导  演 Robert Edwards
◎编  剧 Robert Edwards
◎主  演 Ralph Fiennes
      Donald Sutherland
      Tom Hollander


◎标  签 RalphFiennes | 政治 | 反乌托邦 | 美国 | 剧情 | 英国 | 美国电影 | 2006

◎简  介

  故事发生在一个不知名的极权主义国家,没有交代具体时间,在一座因关押政治犯而臭名昭著的监狱里,狱警乔(范恩斯 饰)负责看守著名的政治犯,剧作家索恩(唐纳德·萨瑟兰 饰)。
   作为地下反对组织的首领,索恩致力于通过恐怖主义活动和游击战推翻以总统儒尼奥尔为首的独裁政府。尽管乔不尽同意索恩的恐怖主义主张,但相处之下索恩凭着剧作家的雄辩口才使乔开始怀疑现有政权的合法性。此时,索恩的追随者发动了内战并节节胜利,在巨大的压力下,儒尼奥尔被迫释放了索恩,内战得以暂停。
   索恩凭借号召力成为民族英雄,乔则成为总统护卫队的统领,索恩游说乔背叛总统。在一个漆黑的夜里,革命者潜入总统府,在一场模拟审判后,儒尼奥尔和第一夫人(罗拉·弗琳·鲍儿 饰)被就地处决。
   索恩掌权后推行激进的革命政策,知识分子被送进集中营进行再教育,年轻人以向秘密警察告发父母为荣,甚至交通灯的颜色也被颠倒,红灯表示可以通行。对此表示强烈反对的乔也被送进集中营,新的统治者企图使他承认,在这个国家没有发生过任何政变。
   愈发疯狂的索恩政权最终难逃覆灭,他和其他领导人被暗杀,旧政权复辟,集中营里的人纷纷获释,但乔由于参加过推翻上任政府的政变,一直被关押在狱中。
   二十年过去了,乔成为监狱里唯一的囚犯,他每日坐在打字前,回忆所经历过的一切,至于他所叙述的事实是否确曾发生过,还是出于他的臆想,没人知道……
Video
ID : 1
Format : AVC
Format/Info : Advanced Video Codec
Format profile : [email protected]
Format settings : CABAC / 4 Ref Frames
Format settings, CABAC : Yes
Format settings, Reference frames : 4 frames
Codec ID : V_MPEG4/ISO/AVC
Duration : 1 h 42 min
Bit rate mode : Variable
Bit rate : 5 781 kb/s
Maximum bit rate : 15.0 Mb/s
Width : 1 920 pixels
Height : 1 080 pixels
Display aspect ratio : 16:9
Frame rate mode : Constant
Frame rate : 23.976 (24000/1001) FPS
Color space : YUV
Chroma subsampling : 4:2:0
Bit depth : 8 bits
Scan type : Progressive
Bits/(Pixel*Frame) : 0.116
Stream size : 4.13 GiB (94%)
Writing library : x264 core 148 r2623 d5b2374
Encoding settings : cabac=1 / ref=4 / deblock=1:-1:-1 / analyse=0x3:0x133 / me=umh / subme=9 / psy=1 / psy_rd=1.00:0.15 / mixed_ref=1 / me_range=24 / chroma_me=1 / trellis=2 / 8x8dct=1 / cqm=0 / deadzone=21,11 / fast_pskip=1 / chroma_qp_offset=-3 / threads=34 / lookahead_threads=5 / sliced_threads=0 / nr=150 / decimate=1 / interlaced=0 / bluray_compat=0 / constrained_intra=0 / bframes=8 / b_pyramid=2 / b_adapt=2 / b_bias=0 / direct=3 / weightb=1 / open_gop=0 / weightp=2 / keyint=120 / keyint_min=61 / scenecut=0 / intra_refresh=0 / rc_lookahead=120 / rc=crf / mbtree=1 / crf=18.0 / qcomp=0.60 / qpmin=0 / qpmax=69 / qpstep=4 / vbv_maxrate=15000 / vbv_bufsize=31250 / crf_max=0.0 / nal_hrd=vbr / filler=0 / ip_ratio=1.40 / aq=3:1.00
Default : Yes
Forced : No
Color range : Limited
Color primaries : BT.709
Transfer characteristics : BT.709
Matrix coefficients : BT.709

Audio
ID : 2
Format : E-AC-3
Format/Info : Enhanced AC-3
Commercial name : Dolby Digital Plus
Codec ID : A_EAC3
Duration : 1 h 42 min
Bit rate mode : Constant
Bit rate : 224 kb/s
Channel(s) : 2 channels
Channel layout : L R
Sampling rate : 48.0 kHz
Frame rate : 31.250 FPS (1536 SPF)
Compression mode : Lossy
Stream size : 164 MiB (4%)
Language : English
Service kind : Complete Main
Default : Yes
Forced : No

Text
ID : 3
Format : UTF-8
Codec ID : S_TEXT/UTF8
Codec ID/Info : UTF-8 Plain Text
Language : English
Default : No
Forced : No





1 个附件 售价 大小 下载 时间

Land.of.the.Blind.2006.1080p.AMZN.WEBRip.DDP2.0.x264-monkee.torrent 0 金币 88.05K 315 次 22天前

#1楼
发帖时间:2019-10-22 00:29:01   |   回复数:2
luocheng7052
武林高手
多谢楼主分享
22天前 #2楼
911degrees
隐世仙人♂
非常感谢,谢谢分享
21天前 #3楼
游客组