conanlcg
超级版主

[更 早] [其他] [惊悚] [WEB-1080P] 非请勿进 Feardotcom.2002.1080p.AMZN.WEBRip.DD5.1.x264-MooMa 5.72GB

-->

帖子完整标题:非请勿进 Feardotcom.2002.1080p.AMZN.WEBRip.DD5.1.x264-MooMa 5.72GB




◎译  名 非请勿进 / Fear Dot Com / 恐怖网站 / 拿命.COM
◎片  名 FeardotCom
◎年  代 2002
◎产  地 英国 / 德国 / 卢森堡 / 美国
◎类  别 惊悚 / 恐怖 / 犯罪
◎语  言 英语
◎上映日期 2002-08-30(美国) / 2003-06-27(英国)
◎IMDb评分 3.4/10 from 19038 users
◎IMDb链接 https://www.imdb.com/title/tt0295254
◎豆瓣评分 5.4/10 from 638 users
◎豆瓣链接 https://movie.douban.com/subject/1299595/
◎片  长 101分钟
◎导  演 William Malone
◎编  剧 Josephine Coyle / Moshe Diamant
◎主  演 斯蒂芬·多尔夫 Stephen Dorff
      娜塔莎· 麦克艾霍恩 Natascha McElhone
      斯蒂芬·瑞 Stephen Rea


◎标  签 恐怖 | 惊悚 | 美国 | 美国电影 | 2002 | 恐怖片 | 悬疑 | 犯罪

◎简  介

  麦克(斯蒂芬·多尔夫 Stephen Dorff 饰)是一名心怀大志的警探,最近,一宗连环杀人案件吸引了他的注意,已经有四人成为了残酷凶手刀下的猎物。在搭档泰瑞(娜塔莎· 麦克艾霍恩 Natascha McElhone 饰)的帮助下,麦克开始了对案件的调查。
  随着调查的深入,一个惊悚的网站逐渐浮出水面,四名受害者在死前48小时都登陆过这个网站,在一个代号为“黑寡妇”的神秘女人的支配下,他们似乎用生命做赌注加入了一场游戏。为了查明真相,麦克决定以身试险,他登入了网站,与此同时,他生命的最后48小时开始了倒数,麦克必须在此时限内将真凶绳之于法,否则,他的结局会和先前的那四个人一模一样。
Video
ID : 1
Format : AVC
Format/Info : Advanced Video Codec
Format profile : [email protected]
Format settings : CABAC / 4 Ref Frames
Format settings, CABAC : Yes
Format settings, Reference frames : 4 frames
Codec ID : V_MPEG4/ISO/AVC
Duration : 1 h 41 min
Bit rate mode : Variable
Bit rate : 7 699 kb/s
Maximum bit rate : 15.0 Mb/s
Width : 1 920 pixels
Height : 800 pixels
Display aspect ratio : 2.40:1
Frame rate mode : Constant
Frame rate : 23.976 (24000/1001) FPS
Color space : YUV
Chroma subsampling : 4:2:0
Bit depth : 8 bits
Scan type : Progressive
Bits/(Pixel*Frame) : 0.209
Stream size : 5.45 GiB (95%)
Writing library : x264 core 148 r2623 d5b2374
Encoding settings : cabac=1 / ref=4 / deblock=1:-1:-1 / analyse=0x3:0x133 / me=umh / subme=9 / psy=1 / psy_rd=1.00:0.15 / mixed_ref=1 / me_range=24 / chroma_me=1 / trellis=2 / 8x8dct=1 / cqm=0 / deadzone=21,11 / fast_pskip=1 / chroma_qp_offset=-3 / threads=25 / lookahead_threads=4 / sliced_threads=0 / nr=150 / decimate=1 / interlaced=0 / bluray_compat=0 / constrained_intra=0 / bframes=8 / b_pyramid=2 / b_adapt=2 / b_bias=0 / direct=3 / weightb=1 / open_gop=0 / weightp=2 / keyint=120 / keyint_min=61 / scenecut=0 / intra_refresh=0 / rc_lookahead=120 / rc=crf / mbtree=1 / crf=18.0 / qcomp=0.60 / qpmin=0 / qpmax=69 / qpstep=4 / vbv_maxrate=15000 / vbv_bufsize=31250 / crf_max=0.0 / nal_hrd=vbr / filler=0 / ip_ratio=1.40 / aq=3:1.00
Default : Yes
Forced : No
Color range : Limited
Color primaries : BT.709
Transfer characteristics : BT.709
Matrix coefficients : BT.709

Audio
ID : 2
Format : AC-3
Format/Info : Audio Coding 3
Commercial name : Dolby Digital
Codec ID : A_AC3
Duration : 1 h 41 min
Bit rate mode : Constant
Bit rate : 384 kb/s
Channel(s) : 6 channels
Channel layout : L R C LFE Ls Rs
Sampling rate : 48.0 kHz
Frame rate : 31.250 FPS (1536 SPF)
Bit depth : 16 bits
Compression mode : Lossy
Stream size : 278 MiB (5%)
Language : English
Service kind : Complete Main
Default : Yes
Forced : No





1 个附件 售价 大小 下载 时间

Feardotcom.2002.1080p.AMZN.WEBRip.DD5.1.x264-MooMa.torrent 0 金币 57.74K 175 次 22天前

#1楼
发帖时间:2019-10-22 00:33:40   |   回复数:1
911degrees
隐世仙人♂
非常感谢,谢谢分享
21天前 #2楼
游客组