conanlcg
超级版主

[更 早] [欧美] [剧情] [WEB-1080P] 嘉丽妹妹/嘉莉 Carrie.1952.1080p.AMZN.WEBRip.DD2.0.x264-SbR 11.72GB

-->

帖子完整标题:嘉丽妹妹/嘉莉 Carrie.1952.1080p.AMZN.WEBRip.DD2.0.x264-SbR 11.72GB




◎译  名 嘉丽妹妹 / 嘉莉
◎片  名 Carrie
◎年  代 1952
◎产  地 美国
◎类  别 剧情 / 爱情
◎语  言 英语
◎上映日期 1952-07-17
◎IMDb评分 7.3/10 from 1964 users
◎IMDb链接 https://www.imdb.com/title/tt0044486
◎豆瓣评分 8.2/10 from 1208 users
◎豆瓣链接 https://movie.douban.com/subject/1294945/
◎片  长 118 分钟
◎导  演 William Wyler
◎编  剧 Ruth Goetz / Augustus Goetz
◎主  演 Laurence Olivier
      Jennifer Jones
      Miriam Hopkins
      Eddie Albert


◎标  签 美国 | 爱情 | 嘉丽妹妹 | 名著改編 | 美国电影 | 名著改编 | 经典 | 1950s

◎简  介

  嘉莉(珍妮弗·琼斯 Jennifer Jones 饰)出身于偏僻贫穷的山村,长大之后,她来到了繁华的大都市芝加哥,希望能够在这里过上自己梦想中的生活。然而,现实却是残酷的,拮据的经济让她不得不过着寄人篱下的日子。一次偶然中,嘉莉在火车上遇见了名为杜洛埃(埃迪·艾伯特 Eddie Albert 饰)的男子,杜洛埃多金又慷慨,嘉莉遂即同他开始了同居生活。
  之后,嘉莉又遇见了酒店老板赫斯渥(劳伦斯·奥利弗 Laurence Olivier 饰),在赫斯渥的身边,嘉莉总算过上了梦想中荣华富贵纸醉金迷的生活。可是好景不长,一场意外让赫斯渥千金散尽,就在两人举步维艰之时,嘉莉得到了一份在歌剧院的工作,嘉莉凭借着自己的美貌和歌喉很快蹿红,面对突然获得的财富和名誉,嘉莉决定抛弃赫斯渥。

◎获奖情况

  第25届奥斯卡金像奖(1953)
  黑白片最佳艺术指导和布景(提名) 罗兰德·安德森 / 埃米尔·库里 / 哈尔·佩雷拉
  黑白片最佳服装设计(提名) 伊迪丝·海德

  第13届威尼斯电影节(1952)
  主竞赛单元 金狮奖 (提名) 威廉·惠勒
Video
ID : 1
Format : AVC
Format/Info : Advanced Video Codec
Format profile : [email protected]
Format settings : CABAC / 4 Ref Frames
Format settings, CABAC : Yes
Format settings, Reference frames : 4 frames
Codec ID : V_MPEG4/ISO/AVC
Duration : 2 h 1 min
Bit rate mode : Variable
Bit rate : 13.6 Mb/s
Maximum bit rate : 15.0 Mb/s
Width : 1 920 pixels
Height : 1 080 pixels
Display aspect ratio : 16:9
Frame rate mode : Constant
Frame rate : 23.976 (24000/1001) FPS
Color space : YUV
Chroma subsampling : 4:2:0
Bit depth : 8 bits
Scan type : Progressive
Bits/(Pixel*Frame) : 0.274
Stream size : 11.6 GiB (99%)
Writing library : x264 core 148 r2623 d5b2374
Encoding settings : cabac=1 / ref=4 / deblock=1:-1:-1 / analyse=0x3:0x133 / me=umh / subme=9 / psy=1 / psy_rd=1.00:0.15 / mixed_ref=1 / me_range=24 / chroma_me=1 / trellis=2 / 8x8dct=1 / cqm=0 / deadzone=21,11 / fast_pskip=1 / chroma_qp_offset=-3 / threads=34 / lookahead_threads=5 / sliced_threads=0 / nr=150 / decimate=1 / interlaced=0 / bluray_compat=0 / constrained_intra=0 / bframes=8 / b_pyramid=2 / b_adapt=2 / b_bias=0 / direct=3 / weightb=1 / open_gop=0 / weightp=2 / keyint=120 / keyint_min=61 / scenecut=0 / intra_refresh=0 / rc_lookahead=120 / rc=crf / mbtree=1 / crf=18.0 / qcomp=0.60 / qpmin=0 / qpmax=69 / qpstep=4 / vbv_maxrate=15000 / vbv_bufsize=31250 / crf_max=0.0 / nal_hrd=vbr / filler=0 / ip_ratio=1.40 / aq=3:1.00
Language : English
Default : Yes
Forced : No
Color range : Limited
Color primaries : BT.709
Transfer characteristics : BT.709
Matrix coefficients : BT.709

Audio
ID : 2
Format : AC-3
Format/Info : Audio Coding 3
Commercial name : Dolby Digital
Codec ID : A_AC3
Duration : 2 h 1 min
Bit rate mode : Constant
Bit rate : 192 kb/s
Channel(s) : 2 channels
Channel layout : L R
Sampling rate : 48.0 kHz
Frame rate : 31.250 FPS (1536 SPF)
Bit depth : 16 bits
Compression mode : Lossy
Stream size : 167 MiB (1%)
Language : English
Service kind : Complete Main
Default : Yes
Forced : No

Text #1
ID : 3
Format : UTF-8
Codec ID : S_TEXT/UTF8
Codec ID/Info : UTF-8 Plain Text
Duration : 1 h 57 min
Bit rate : 50 b/s
Count of elements : 1243
Stream size : 43.6 KiB (0%)
Language : English
Default : No
Forced : No

Text #2
ID : 4
Format : UTF-8
Codec ID : S_TEXT/UTF8
Codec ID/Info : UTF-8 Plain Text
Duration : 2 h 1 min
Bit rate : 56 b/s
Count of elements : 2249
Stream size : 50.3 KiB (0%)
Title : SDH
Language : English
Default : No
Forced : No

Menu
00:00:00.000 : en:01. The Big City
00:07:56.059 : en:02. Charlie's the Name
00:10:56.239 : en:03. Dinner at Fitzgerald's
00:18:03.249 : en:04. Carrie Moves In
00:23:27.948 : en:05. George Drops by for a Drink
00:27:41.827 : en:06. The Hurstwoods at Home
00:31:25.300 : en:07. After the Theater
00:38:51.496 : en:08. In Love
00:47:07.658 : en:09. George's Lies
01:01:38.028 : en:10. A Free Man
01:07:22.413 : en:11. Money Matters
01:21:06.528 : en:12. New Family, Old Family
01:33:56.214 : en:13. The Actress
01:36:32.662 : en:14. Mr. & Mrs. Hurstwood, Jr.
01:43:09.350 : en:15. Charlie Finds Carrie
01:49:26.351 : en:16. Destitute
01:52:03.008 : en:17. A Little Help





1 个附件 售价 大小 下载 时间

Carrie.1952.1080p.AMZN.WEBRip.DD2.0.x264-SbR.torrent 0 金币 59.16K 252 次 22天前

#1楼
发帖时间:2019-10-22 00:41:32   |   回复数:1
911degrees
隐世仙人♂
非常感谢,谢谢分享
21天前 #2楼
游客组