conanlcg
超级版主

[2016] [欧美] [其他] [WEB-1080P] 饶舌异客 Bad.Rap.2016.1080p.WEBRip.x264-STRiFE 7.79GB

-->

帖子完整标题:饶舌异客 Bad.Rap.2016.1080p.WEBRip.x264-STRiFE 7.79GB




◎译  名 饶舌异客
◎片  名 Bad Rap
◎年  代 2016
◎产  地 美国
◎类  别 纪录片 / 音乐
◎语  言 英语
◎上映日期 2016-04-16
◎IMDb评分 6.5/10 from 124 users
◎IMDb链接 https://www.imdb.com/title/tt5264178
◎豆瓣评分 0/10 from 0 users
◎豆瓣链接 https://movie.douban.com/subject/26779303/
◎片  长 82分钟
◎导  演 Salima Koroma
◎主  演 奥卡菲娜 Awkwafina
      李大为 David Lee
      Richard Lee
      Jonathan Park


◎标  签 纪录片 | 美国 | 纪录 | 独立电影 | 2016 | Documentary | 音乐 | 纪实

◎简  介

  在这个音乐流派中,亚裔常被视为圈外人,然而四位年轻的美国亚裔说唱歌手却以自己的方式追求成功。
Video
ID : 1
Format : AVC
Format/Info : Advanced Video Codec
Format profile : [email protected]
Format settings : CABAC / 4 Ref Frames
Format settings, CABAC : Yes
Format settings, Reference frames : 4 frames
Codec ID : V_MPEG4/ISO/AVC
Duration : 1 h 22 min
Bit rate : 13.1 Mb/s
Width : 1 920 pixels
Height : 1 080 pixels
Display aspect ratio : 16:9
Frame rate mode : Constant
Frame rate : 23.976 (24000/1001) FPS
Color space : YUV
Chroma subsampling : 4:2:0
Bit depth : 8 bits
Scan type : Progressive
Bits/(Pixel*Frame) : 0.264
Stream size : 7.57 GiB (97%)
Writing library : x264 core 152 r2851 ba24899
Encoding settings : cabac=1 / ref=4 / deblock=1:-3:-3 / analyse=0x3:0x113 / me=umh / subme=8 / psy=1 / psy_rd=1.00:0.15 / mixed_ref=1 / me_range=16 / chroma_me=1 / trellis=2 / 8x8dct=1 / cqm=0 / deadzone=21,11 / fast_pskip=0 / chroma_qp_offset=-2 / threads=21 / lookahead_threads=3 / sliced_threads=0 / nr=0 / decimate=1 / interlaced=0 / bluray_compat=0 / constrained_intra=0 / bframes=3 / b_pyramid=2 / b_adapt=1 / b_bias=0 / direct=3 / weightb=1 / open_gop=0 / weightp=2 / keyint=240 / keyint_min=23 / scenecut=40 / intra_refresh=0 / rc=crf / mbtree=0 / crf=17.0 / qcomp=0.60 / qpmin=0 / qpmax=69 / qpstep=4 / ip_ratio=1.40 / pb_ratio=1.30 / aq=3:0.80
Language : English
Default : Yes
Forced : No

Audio
ID : 2
Format : AC-3
Format/Info : Audio Coding 3
Commercial name : Dolby Digital
Codec ID : A_AC3
Duration : 1 h 22 min
Bit rate mode : Constant
Bit rate : 384 kb/s
Channel(s) : 6 channels
Channel layout : L R C LFE Ls Rs
Sampling rate : 48.0 kHz
Frame rate : 31.250 FPS (1536 SPF)
Bit depth : 16 bits
Compression mode : Lossy
Stream size : 227 MiB (3%)
Language : English
Service kind : Complete Main
Default : Yes
Forced : No

Text #1
ID : 3
Format : UTF-8
Codec ID : S_TEXT/UTF8
Codec ID/Info : UTF-8 Plain Text
Duration : 10 min 24 s
Bit rate : 23 b/s
Count of elements : 46
Stream size : 1.79 KiB (0%)
Title : Forced
Language : English
Default : Yes
Forced : Yes

Text #2
ID : 4
Format : UTF-8
Codec ID : S_TEXT/UTF8
Codec ID/Info : UTF-8 Plain Text
Duration : 1 h 20 min
Bit rate : 121 b/s
Count of elements : 1662
Stream size : 71.9 KiB (0%)
Language : English
Default : No
Forced : No





1 个附件 售价 大小 下载 时间

Bad.Rap.2016.1080p.WEBRip.x264-STRiFE.torrent 0 金币 78.51K 203 次 23天前

#1楼
发帖时间:2019-10-22 00:43:13   |   回复数:1
911degrees
隐世仙人♂
非常感谢,谢谢分享
22天前 #2楼
游客组