conanlcg
超级版主

[2015] [欧美] [剧情] [WEB-1080P] The Milwaukee Project(曾用名)/几乎都行(豆友自译) Almost.Anything.2015.1080p.AMZN.WEBRip.DDP

-->

帖子完整标题:The Milwaukee Project(曾用名)/几乎都行(豆友自译) Almost.Anything.2015.1080p.AMZN.WEBRip.DDP5.1.x264-monkee 5.45GB




◎译  名 The Milwaukee Project(曾用名) / 几乎都行(豆友自译)
◎片  名 Almost Anything
◎年  代 2015
◎产  地 美国
◎类  别 剧情 / 喜剧
◎语  言 英语
◎上映日期 2015-02-27(美国)
◎IMDb评分 5.2/10 from 115 users
◎IMDb链接 https://www.imdb.com/title/tt3812722
◎豆瓣评分 0/10 from 0 users
◎豆瓣链接 https://movie.douban.com/subject/26970642/
◎片  长 90分钟
◎导  演 Torre Catalano
◎编  剧 Brittany Allen / Alex Ashbaugh / Jordan Hayes / Torre Catalano
◎主  演 Alex Ashbaugh
      Jodi Balfour
      约旦·海耶斯 Jordan Hayes
      玛莎·麦萨克 Martha MacIsaac
      布兰顿·杰·麦克拉伦 Brandon Jay McLaren
      Dilon Porter


◎简  介

  一群朋友相聚一起。Will和Greta是结婚多年的夫妻。Jay单身。Chris带来了刚认识不久的Caleb。Sam和Beans是彼此的初恋。餐桌上,一行人谈笑风生。夜深之后却不知不觉有了出人意料的发展。
Video
ID : 1
Format : AVC
Format/Info : Advanced Video Codec
Format profile : [email protected]
Format settings : CABAC / 4 Ref Frames
Format settings, CABAC : Yes
Format settings, Reference frames : 4 frames
Codec ID : V_MPEG4/ISO/AVC
Duration : 1 h 37 min
Bit rate mode : Variable
Bit rate : 7 362 kb/s
Maximum bit rate : 15.0 Mb/s
Width : 1 920 pixels
Height : 800 pixels
Display aspect ratio : 2.40:1
Frame rate mode : Constant
Frame rate : 23.976 (24000/1001) FPS
Color space : YUV
Chroma subsampling : 4:2:0
Bit depth : 8 bits
Scan type : Progressive
Bits/(Pixel*Frame) : 0.200
Stream size : 5.01 GiB (92%)
Default : Yes
Forced : No
Color range : Limited
Color primaries : BT.709
Transfer characteristics : BT.709
Matrix coefficients : BT.709

Audio
ID : 2
Format : E-AC-3
Format/Info : Enhanced AC-3
Commercial name : Dolby Digital Plus
Codec ID : A_EAC3
Duration : 1 h 37 min
Bit rate mode : Constant
Bit rate : 640 kb/s
Channel(s) : 6 channels
Channel layout : L R C LFE Ls Rs
Sampling rate : 48.0 kHz
Frame rate : 31.250 FPS (1536 SPF)
Compression mode : Lossy
Stream size : 446 MiB (8%)
Language : English
Service kind : Complete Main
Default : Yes
Forced : No

Text
ID : 3
Format : UTF-8
Codec ID : S_TEXT/UTF8
Codec ID/Info : UTF-8 Plain Text
Duration : 1 h 36 min
Bit rate : 66 b/s
Count of elements : 1544
Stream size : 47.1 KiB (0%)
Language : English
Default : No
Forced : No





1 个附件 售价 大小 下载 时间

Almost.Anything.2015.1080p.AMZN.WEBRip.DDP5.1.x264-monkee.torrent 0 金币 55.05K 245 次 28天前

#1楼
发帖时间:2019-10-22 00:45:29   |   回复数:1
911degrees
隐世仙人♂
非常感谢,谢谢分享
27天前 #2楼
游客组