conanlcg
超级版主

[更 早] [欧美] [喜剧] [WEB-1080P] 反斗怪家庭续集/脱线家族 2 A.Very.Brady.Sequel.1996.1080p.AMZN.WEBRip.DDP5.1.x264-monkee 9.7

-->

帖子完整标题:反斗怪家庭续集/脱线家族 2 A.Very.Brady.Sequel.1996.1080p.AMZN.WEBRip.DDP5.1.x264-monkee 9.73GB




◎译  名 反斗怪家庭续集 / 脱线家族 2
◎片  名 A Very Brady Sequel
◎年  代 1996
◎产  地 美国
◎类  别 喜剧
◎语  言 英语
◎上映日期 1996-08-23
◎IMDb评分 5.7/10 from 9468 users
◎IMDb链接 https://www.imdb.com/title/tt0118073
◎豆瓣评分 0/10 from 0 users
◎豆瓣链接 https://movie.douban.com/subject/1295243/
◎片  长 90 分钟
◎导  演 阿兰尼·珊福德 Arlene Sanford
◎编  剧 德博拉·卡普兰 Deborah Kaplan / 哈里·艾尔方特 Harry Elfont / James Berg
◎主  演 谢莉·朗 Shelley Long
      盖瑞·科尔 Gary Cole
      Christopher Daniel Barnes
      克里斯蒂娜·泰勒 Christine Taylor
      Paul Sutera
      珍妮佛·艾莉丝·考克斯 Jennifer Elise Cox
      杰西·李·索弗 Jesse Lee Soffer
      奥莉维亚·海克 Olivia Hack
      Henriette Mantel
      提姆·麦锡森 Tim Matheson


◎标  签 喜剧 | HBO | 美國 | 美国电影 | 美国动画 | 美国 | 电影2019 | 欧美

◎简  介

  女主人卡萝失踪已久的前夫罗伊突然出现,并且想和卡萝及三个女儿再续天伦之乐,但是卡萝的现任老公麦克可不会袖手旁观,任人破坏现今美满的家庭。但问题出在这个破坏者是卡萝失踪且未离婚的合法老公,到底这个“脱线家族”要如何以他们“少根筋”的天性,来解决这个凡人难解的三角习题
Video
ID : 1
Format : AVC
Format/Info : Advanced Video Codec
Format profile : [email protected]
Format settings : CABAC / 4 Ref Frames
Format settings, CABAC : Yes
Format settings, Reference frames : 4 frames
Codec ID : V_MPEG4/ISO/AVC
Duration : 1 h 29 min
Bit rate mode : Variable
Bit rate : 15.0 Mb/s
Width : 1 920 pixels
Height : 1 080 pixels
Display aspect ratio : 16:9
Frame rate mode : Constant
Frame rate : 23.976 (24000/1001) FPS
Color space : YUV
Chroma subsampling : 4:2:0
Bit depth : 8 bits
Scan type : Progressive
Bits/(Pixel*Frame) : 0.302
Stream size : 9.33 GiB (96%)
Writing library : x264 core 148 r2623 d5b2374
Encoding settings : cabac=1 / ref=4 / deblock=1:-1:-1 / analyse=0x3:0x133 / me=umh / subme=9 / psy=1 / psy_rd=1.00:0.15 / mixed_ref=1 / me_range=24 / chroma_me=1 / trellis=2 / 8x8dct=1 / cqm=0 / deadzone=21,11 / fast_pskip=1 / chroma_qp_offset=-3 / threads=34 / lookahead_threads=5 / sliced_threads=0 / nr=150 / decimate=1 / interlaced=0 / bluray_compat=0 / constrained_intra=0 / bframes=8 / b_pyramid=2 / b_adapt=2 / b_bias=0 / direct=3 / weightb=1 / open_gop=0 / weightp=2 / keyint=120 / keyint_min=61 / scenecut=0 / intra_refresh=0 / rc_lookahead=120 / rc=crf / mbtree=1 / crf=18.0 / qcomp=0.60 / qpmin=0 / qpmax=69 / qpstep=4 / vbv_maxrate=15000 / vbv_bufsize=31250 / crf_max=0.0 / nal_hrd=vbr / filler=0 / ip_ratio=1.40 / aq=3:1.00
Default : Yes
Forced : No
Color range : Limited
Color primaries : BT.709
Transfer characteristics : BT.709
Matrix coefficients : BT.709

Audio
ID : 2
Format : E-AC-3
Format/Info : Enhanced AC-3
Commercial name : Dolby Digital Plus
Codec ID : A_EAC3
Duration : 1 h 29 min
Bit rate mode : Constant
Bit rate : 640 kb/s
Channel(s) : 6 channels
Channel layout : L R C LFE Ls Rs
Sampling rate : 48.0 kHz
Frame rate : 31.250 FPS (1536 SPF)
Compression mode : Lossy
Stream size : 412 MiB (4%)
Language : English
Service kind : Complete Main
Default : Yes
Forced : No

Text
ID : 3
Format : UTF-8
Codec ID : S_TEXT/UTF8
Codec ID/Info : UTF-8 Plain Text
Duration : 1 h 27 min
Bit rate : 86 b/s
Count of elements : 1919
Stream size : 54.9 KiB (0%)
Language : English
Default : No
Forced : No





1 个附件 售价 大小 下载 时间

A.Very.Brady.Sequel.1996.1080p.AMZN.WEBRip.DDP5.1.x264-monkee.torrent 0 金币 97.96K 168 次 23天前

#1楼
发帖时间:2019-10-22 00:49:47   |   回复数:1
911degrees
隐世仙人♂
非常感谢,谢谢分享
22天前 #2楼
游客组