conanlcg
超级版主

[2012] [欧美] [其他] [WEB-1080P] 傑克島袋-烏克麗麗神人 Jake.Shimabukuro.Life.on.Four.Strings.2012.1080p.AMZN.WEBRip.DDP2.0.

-->

帖子完整标题:傑克島袋-烏克麗麗神人 Jake.Shimabukuro.Life.on.Four.Strings.2012.1080p.AMZN.WEBRip.DDP2.0.x264-TEPES 3.77GB




◎译  名 傑克島袋-烏克麗麗神人
◎片  名 Life On Four Strings
◎年  代 2012
◎产  地 美国
◎类  别 纪录片
◎IMDb评分 8.2/10 from 96 users
◎IMDb链接 https://www.imdb.com/title/tt2164770
◎豆瓣评分 8.8/10 from 72 users
◎豆瓣链接 https://movie.douban.com/subject/24722049/

◎标  签 纪录片 | 美国 | 音乐 | 乌克丽丽 | shimabukuro | jake | 2012 | 美国电影

◎简  介

  This intimate documentary gives viewers a singular glimpse into Jake Shimabukuro, ukulele virtuoso, but also Jake, the young boy who grew up in a modest apartment to a single mother and unsuspectingly rose to international stardom.

◎获奖情况

  第23届哥谭独立电影奖(2013)
  观众选择奖 Donald Young / Tadashi Nakamura
Video
ID : 1
Format : AVC
Format/Info : Advanced Video Codec
Format profile : [email protected]
Format settings : CABAC / 4 Ref Frames
Format settings, CABAC : Yes
Format settings, Reference frames : 4 frames
Codec ID : V_MPEG4/ISO/AVC
Duration : 53 min 40 s
Bit rate mode : Constant
Bit rate : 10 000 kb/s
Width : 1 920 pixels
Height : 1 080 pixels
Display aspect ratio : 16:9
Frame rate mode : Constant
Frame rate : 23.976 (24000/1001) FPS
Color space : YUV
Chroma subsampling : 4:2:0
Bit depth : 8 bits
Scan type : Progressive
Bits/(Pixel*Frame) : 0.201
Stream size : 3.68 GiB (98%)
Language : English
Default : Yes
Forced : No
Color range : Limited
Color primaries : BT.709
Transfer characteristics : BT.709
Matrix coefficients : BT.709

Audio
ID : 2
Format : E-AC-3
Format/Info : Enhanced AC-3
Commercial name : Dolby Digital Plus
Codec ID : A_EAC3
Duration : 53 min 40 s
Bit rate mode : Constant
Bit rate : 224 kb/s
Channel(s) : 2 channels
Channel layout : L R
Sampling rate : 48.0 kHz
Frame rate : 31.250 FPS (1536 SPF)
Compression mode : Lossy
Stream size : 86.0 MiB (2%)
Language : English
Service kind : Complete Main
Default : Yes
Forced : No

Text
ID : 3
Format : UTF-8
Codec ID : S_TEXT/UTF8
Codec ID/Info : UTF-8 Plain Text
Duration : 52 min 6 s
Bit rate : 60 b/s
Count of elements : 664
Stream size : 23.0 KiB (0%)
Title : SDH
Language : English
Default : No
Forced : No





1 个附件 售价 大小 下载 时间

Jake.Shimabukuro.Life.on.Four.Strings.2012.1080p.AMZN.WEBRip.DDP2.0.x264-TEPES.torrent 0 金币 38.27K 203 次 22天前

#1楼
发帖时间:2019-10-22 02:28:00   |   回复数:2
yangbo83222179
一代宗师
谢谢楼主分享,支持一下
22天前 #2楼
911degrees
隐世仙人♂
非常感谢,谢谢分享
21天前 #3楼
游客组