conanlcg
超级版主

[更 早] [欧美] [喜剧] [WEB-1080P] 大海之外/海之外 Out.to.Sea.1997.1080p.AMZN.WEBRip.DDP5.1.x264-ABM 6.38GB

-->

帖子完整标题:大海之外/海之外 Out.to.Sea.1997.1080p.AMZN.WEBRip.DDP5.1.x264-ABM 6.38GB




◎译  名 大海之外 / 海之外
◎片  名 Out to Sea
◎年  代 1997
◎产  地 美国
◎类  别 喜剧 / 爱情
◎语  言 英语 / 意大利语 / 日语 / 西班牙语
◎上映日期 1997-07-02(美国)
◎IMDb评分 6.1/10 from 7447 users
◎IMDb链接 https://www.imdb.com/title/tt0119848
◎豆瓣评分 7.1/10 from 97 users
◎豆瓣链接 https://movie.douban.com/subject/1302710/
◎片  长 106分钟
◎导  演 马莎·库利奇 Martha Coolidge
◎编  剧 罗伯特·尼尔森·雅各布斯 Robert Nelson Jacobs
◎主  演 杰克·莱蒙 Jack Lemmon
      沃尔特·马修 Walter Matthau
      黛恩·坎农 Dyan Cannon


◎标  签 喜剧 | 美国 | Jack_Lemmon | Walter_Matthau | 美国电影 | 1997 | 老人 | 1990s

◎简  介

  杰克.莱蒙与沃尔特.马修这一对最佳喜剧搭档在完成了两集东山再起的《见色忘友》之后,再度携手走进女人堆,竟然在一艘开往加勒比海的邮轮上当伴舞男郎,希望钓上富婆财色兼收。华特依旧饰演诡计多端的查理戈登,他赌马欠了一屁股债,乃游说丧妻的连襟赫伯苏利文出海旅游轻松一下。赫伯不明所以答应了,上船后才知道查理已签约伴舞,虽被摆了一道也只好打鸭子上架。
Video
ID : 1
Format : AVC
Format/Info : Advanced Video Codec
Format profile : [email protected]
Format settings : CABAC / 4 Ref Frames
Format settings, CABAC : Yes
Format settings, Reference frames : 4 frames
Codec ID : V_MPEG4/ISO/AVC
Duration : 1 h 46 min
Bit rate mode : Variable
Bit rate : 7 759 kb/s
Maximum bit rate : 15.0 Mb/s
Width : 1 920 pixels
Height : 1 040 pixels
Display aspect ratio : 1.85:1
Original display aspect ratio : 1.85:1
Frame rate mode : Constant
Frame rate : 23.976 (24000/1001) FPS
Color space : YUV
Chroma subsampling : 4:2:0
Bit depth : 8 bits
Scan type : Progressive
Bits/(Pixel*Frame) : 0.162
Stream size : 5.78 GiB (91%)
Writing library : x264 core 148 r2623 d5b2374
Encoding settings : cabac=1 / ref=4 / deblock=1:-1:-1 / analyse=0x3:0x133 / me=umh / subme=9 / psy=1 / psy_rd=1.00:0.15 / mixed_ref=1 / me_range=24 / chroma_me=1 / trellis=2 / 8x8dct=1 / cqm=0 / deadzone=21,11 / fast_pskip=1 / chroma_qp_offset=-3 / threads=32 / lookahead_threads=5 / sliced_threads=0 / nr=150 / decimate=1 / interlaced=0 / bluray_compat=0 / constrained_intra=0 / bframes=8 / b_pyramid=2 / b_adapt=2 / b_bias=0 / direct=3 / weightb=1 / open_gop=0 / weightp=2 / keyint=120 / keyint_min=61 / scenecut=0 / intra_refresh=0 / rc_lookahead=120 / rc=crf / mbtree=1 / crf=18.0 / qcomp=0.60 / qpmin=0 / qpmax=69 / qpstep=4 / vbv_maxrate=15000 / vbv_bufsize=31250 / crf_max=0.0 / nal_hrd=vbr / filler=0 / ip_ratio=1.40 / aq=3:1.00
Language : English
Default : Yes
Forced : No
Color range : Limited
Color primaries : BT.709
Transfer characteristics : BT.709
Matrix coefficients : BT.709

Audio
ID : 2
Format : E-AC-3
Format/Info : Enhanced AC-3
Commercial name : Dolby Digital Plus
Codec ID : A_EAC3
Duration : 1 h 46 min
Bit rate mode : Constant
Bit rate : 640 kb/s
Channel(s) : 6 channels
Channel layout : L R C LFE Ls Rs
Sampling rate : 48.0 kHz
Frame rate : 31.250 FPS (1536 SPF)
Compression mode : Lossy
Stream size : 488 MiB (7%)
Language : English
Service kind : Complete Main
Default : Yes
Forced : No

Text #1
ID : 3
Format : UTF-8
Codec ID : S_TEXT/UTF8
Codec ID/Info : UTF-8 Plain Text
Language : English
Default : No
Forced : No

Text #2
ID : 4
Format : UTF-8
Codec ID : S_TEXT/UTF8
Codec ID/Info : UTF-8 Plain Text
Title : SDH
Language : English
Default : No
Forced : No

Menu
00:00:01.000 : en:Studio Logos
00:00:24.000 : en:Opening Credits
00:02:01.000 : en:Opening credits
00:04:38.000 : en:Opening Credits
00:07:02.000 : en:Charlie gives Herb tickets to a cruise but Herb refuses to go
00:08:45.000 : en:Charlie & Herb sit in someone's business class seats & are sent to the economy class
00:11:09.000 : en:Charlie & Herb board the cruise
00:11:49.000 : en:Charlie & Herb enter Liz & Mavis' luxury room
00:12:48.000 : en:Charlie confesses that they are dance hosts on the cruise
00:14:54.000 : en:Herb tries to get off the cruise & fails
00:16:32.000 : en:Charlie tells Herb his reason for being on the cruise
00:17:59.000 : en:Gil explains the rules to all the dance hosts
00:20:28.000 : en:Gil introduces the dance hosts & Herb dances with Bridget
00:24:46.000 : en:Charlie changes his clothes
00:25:14.000 : en:Everybody enjoys the dance & musical session
00:26:18.000 : en:Charlie wins a bet on the poker table
00:29:54.000 : en:Herb asks Vivian for a dance
00:33:31.000 : en:Charlie leaves the poker table
00:34:07.000 : en:Herb & Vivian talk about their feelings
00:36:12.000 : en:Liz is impressed with Charlie
00:37:06.000 : en:Gil warns Herb & Charlie to do their jobs well
00:38:28.000 : en:Herb & Charlie give each other a hint about their partners
00:40:12.000 : en:Gil tells the dance hosts their schedule
00:41:52.000 : en:Charlie visits Liz & gives her roses
00:44:22.000 : en:The passengers are taught dance moves
00:45:07.000 : en:Charlie makes a fake call to Cullen
00:46:27.000 : en:Liz & Charlie enjoy each other's company
00:47:38.000 : en:Herb's true identity is revealed to Vivian
00:48:49.000 : en:Gil finds out that Charlie is faking his leg injury
00:53:09.000 : en:Herb spots Vivian with Sebastian
00:54:12.000 : en:Herb tries to hide from Gil
00:57:54.000 : en:Herb teaches Charlie how to dance
01:00:36.000 : en:Mac & Jonathan assume that Herb & Charlie are gay
01:01:14.000 : en:Charlie dances with Ellen horrendously to hide from Liz
01:06:42.000 : en:Herb asks Vivian to dance & she agrees
01:09:17.000 : en:Vivian & Herb kiss & decide to meet at the eclipse the next day
01:10:33.000 : en:Charlie lies to Mrs Ellen & Gil to make them meet in Ellen's room
01:11:47.000 : en:Cullen invites Charlie to a game of poker
01:12:37.000 : en:Jonathan dances with Mavis
01:14:04.000 : en:Carswell is caught how to cheat
01:15:32.000 : en:Charlie takes Liz to Gil's room
01:16:28.000 : en:Charlie is really happy about being with Liz
01:18:32.000 : en:Charlie practices proposing to Liz
01:19:16.000 : en:Herb runs into his Maria & invites her for a cup of coffee
01:20:06.000 : en:Maria & Herb talk about Suzie over coffee
01:21:34.000 : en:Liz & Charlie decide to get married
01:23:34.000 : en:Vivian decides to go back home & live alone
01:24:23.000 : en:Liz tells Mavis that she's going to marry Charlie
01:25:42.000 : en:Gil reveals Charlie's identity to Liz & Mavis
01:27:48.000 : en:Charlie persuades Herb to confess his love to Vivian
01:29:30.000 : en:Liz & Mavis go to the airport
01:30:39.000 : en:Liz & Mavis & Herb decide to pool in money to get to a real airport
01:31:50.000 : en:Herb & Charlie leave on a boat to meet Vivian
01:33:42.000 : en:Herb & Charlie succeed in stopping Vivian from leaving
01:37:51.000 : en:Everybody gets back together & head home
01:41:29.000 : en:End Credits





1 个附件 售价 大小 下载 时间

Out.to.Sea.1997.1080p.AMZN.WEBRip.DDP5.1.x264-ABM.torrent 0 金币 64.35K 231 次 22天前

#1楼
发帖时间:2019-10-22 02:37:52   |   回复数:1
911degrees
隐世仙人♂
非常感谢,谢谢分享
21天前 #2楼
游客组