conanlcg
超级版主

[2015] [欧美] [喜剧] [WEB-1080P] 皆应是你/正是你的方式 Just.the.Way.You.Are.2015.1080p.AMZN.WEBRip.DDP2.0.x264-pawel2006 6.

-->

帖子完整标题:皆应是你/正是你的方式 Just.the.Way.You.Are.2015.1080p.AMZN.WEBRip.DDP2.0.x264-pawel2006 6.68GB




◎译  名 皆应是你 / 正是你的方式
◎片  名 Just the Way You Are
◎年  代 2015
◎产  地 美国
◎类  别 喜剧 / 爱情
◎语  言 英语
◎上映日期 2015-05-16(美国)
◎IMDb评分 5.9/10 from 831 users
◎IMDb链接 https://www.imdb.com/title/tt4380580
◎豆瓣评分 0/10 from 0 users
◎豆瓣链接 https://movie.douban.com/subject/26392535/
◎导  演 Kristoffer Tabori
◎编  剧 Kristoffer Tabori
◎主  演 Carolyn Adair
      Elizabeth Bowen
      Natasha Calis


◎标  签 Hallmark

◎简  介

  A successful matchmaker has suddenly lost the spark in her own marriage after 15 years, so Jennie insists her husband, Ian, to go on a blind date-with her. By rediscovering each other as "newly-mets," they get a second chance to fall in love for the first time all over again.转自:http://www.0527m.com/item-81330.html
Video
ID : 1
Format : AVC
Format/Info : Advanced Video Codec
Format profile : [email protected]
Format settings : CABAC / 4 Ref Frames
Format settings, CABAC : Yes
Format settings, Reference frames : 4 frames
Codec ID : V_MPEG4/ISO/AVC
Duration : 1 h 24 min
Bit rate : 11.0 Mb/s
Width : 1 920 pixels
Height : 1 080 pixels
Display aspect ratio : 16:9
Frame rate mode : Constant
Frame rate : 23.976 (24000/1001) FPS
Color space : YUV
Chroma subsampling : 4:2:0
Bit depth : 8 bits
Scan type : Progressive
Bits/(Pixel*Frame) : 0.222
Stream size : 6.55 GiB (98%)
Default : Yes
Forced : No
Color range : Limited
Color primaries : BT.709
Transfer characteristics : BT.709
Matrix coefficients : BT.709

Audio
ID : 2
Format : E-AC-3
Format/Info : Enhanced AC-3
Commercial name : Dolby Digital Plus
Codec ID : A_EAC3
Duration : 1 h 24 min
Bit rate mode : Constant
Bit rate : 224 kb/s
Channel(s) : 2 channels
Channel layout : L R
Sampling rate : 48.0 kHz
Frame rate : 31.250 FPS (1536 SPF)
Compression mode : Lossy
Stream size : 136 MiB (2%)
Title : English
Language : English
Service kind : Complete Main
Default : Yes
Forced : No

Text
ID : 3
Format : UTF-8
Codec ID : S_TEXT/UTF8
Codec ID/Info : UTF-8 Plain Text
Duration : 1 h 24 min
Bit rate : 83 b/s
Count of elements : 1962
Stream size : 51.4 KiB (0%)
Title : English [SDH]
Language : English
Default : No
Forced : No





1 个附件 售价 大小 下载 时间

Just.the.Way.You.Are.2015.1080p.AMZN.WEBRip.DDP2.0.x264-pawel2006.torrent 0 金币 33.99K 210 次 23天前

#1楼
发帖时间:2019-10-22 02:39:50   |   回复数:1
911degrees
隐世仙人♂
非常感谢,谢谢分享
22天前 #2楼
游客组