conanlcg
超级版主

[2015] [其他] [剧情] [WEB-1080P] 阿琳娜/阿莲娜 Alena.2015.SWEDISH.1080p.AMZN.WEBRip.DDP2.0.x264-NTG 3.94GB

-->

帖子完整标题:阿琳娜/阿莲娜 Alena.2015.SWEDISH.1080p.AMZN.WEBRip.DDP2.0.x264-NTG 3.94GB




◎译  名 阿琳娜 / 阿莲娜
◎片  名 Alena
◎年  代 2015
◎产  地 瑞典
◎类  别 剧情 / 惊悚 / 恐怖 / 同性
◎语  言 瑞典语 Swedish
◎上映日期 2015-10-09(锡切斯电影节) / 2016-08-19(瑞典)
◎IMDb评分 5.5/10 from 785 users
◎IMDb链接 https://www.imdb.com/title/tt3792884
◎豆瓣评分 0/10 from 0 users
◎豆瓣链接 https://movie.douban.com/subject/26364586/
◎片  长 83分钟
◎导  演 Daniel di Grado
◎编  剧 Kerstin Gezelius / Alexander Onofri / Daniel di Grado
◎主  演 Amalia Holm
      Molly Nutley
      Felice Jankell
      Rebecka Nyman
      Malin Persson


◎标  签 瑞典 | 恐怖 | les | 百合 | 电影 | 民间神怪吸血鬼狼人巫师等系列 | 欧美,幽灵哥佑佑 | 心陷囹圄

◎简  介

  When Alena arrives at her new elite boarding school, Filippa and the other girls start to harass her. But Alena's best friend Josefin won't let her take anymore beating. If she won't strike back, Josefin will do it for her. Hard.
Video
ID : 1
Format : AVC
Format/Info : Advanced Video Codec
Format profile : [email protected]
Format settings : CABAC / 4 Ref Frames
Format settings, CABAC : Yes
Format settings, Reference frames : 4 frames
Codec ID : V_MPEG4/ISO/AVC
Duration : 1 h 23 min
Bit rate mode : Variable
Bit rate : 6 537 kb/s
Maximum bit rate : 15.0 Mb/s
Width : 1 920 pixels
Height : 872 pixels
Display aspect ratio : 2.2:1
Original display aspect ratio : 2.2:1
Frame rate mode : Constant
Frame rate : 24.000 FPS
Color space : YUV
Chroma subsampling : 4:2:0
Bit depth : 8 bits
Scan type : Progressive
Bits/(Pixel*Frame) : 0.163
Stream size : 3.80 GiB (97%)
Default : Yes
Forced : No
Color range : Limited
Color primaries : BT.709
Transfer characteristics : BT.709
Matrix coefficients : BT.709

Audio
ID : 2
Format : E-AC-3
Format/Info : Enhanced AC-3
Commercial name : Dolby Digital Plus
Codec ID : A_EAC3
Duration : 1 h 23 min
Bit rate mode : Constant
Bit rate : 224 kb/s
Channel(s) : 2 channels
Channel layout : L R
Sampling rate : 48.0 kHz
Frame rate : 31.250 FPS (1536 SPF)
Compression mode : Lossy
Stream size : 133 MiB (3%)
Language : Swedish
Service kind : Complete Main
Default : Yes
Forced : No

Text
ID : 3
Format : UTF-8
Codec ID : S_TEXT/UTF8
Codec ID/Info : UTF-8 Plain Text
Duration : 1 h 16 min
Bit rate : 31 b/s
Count of elements : 582
Stream size : 17.6 KiB (0%)
Title : SDH
Language : English
Default : No
Forced : No





1 个附件 售价 大小 下载 时间

Alena.2015.SWEDISH.1080p.AMZN.WEBRip.DDP2.0.x264-NTG.torrent 0 金币 79.22K 1078 次 23天前

#1楼
发帖时间:2019-10-22 02:41:45   |   回复数:1
911degrees
隐世仙人♂
非常感谢,谢谢分享
22天前 #2楼
游客组