conanlcg
超级版主

[2006] [欧美] [剧情] [WEB-1080P] 老友有钱/富贵老友记 Friends.With.Money.2006.1080p.AMZN.WEBRip.DDP5.1.x264-SiGMA 7.40GB

-->

帖子完整标题:老友有钱/富贵老友记 Friends.With.Money.2006.1080p.AMZN.WEBRip.DDP5.1.x264-SiGMA 7.40GB




◎译  名 老友有钱 / 富贵老友记 / 金钱朋友
◎片  名 Friends With Money
◎年  代 2006
◎产  地 美国
◎类  别 剧情 / 爱情
◎语  言 英语
◎上映日期 2006-04-07
◎IMDb评分 5.8/10 from 24890 users
◎IMDb链接 https://www.imdb.com/title/tt0436331
◎豆瓣评分 6.4/10 from 4312 users
◎豆瓣链接 https://movie.douban.com/subject/1465754/
◎片  长 88 分钟
◎导  演 Nicole Holofcener
◎编  剧 Nicole Holofcener
◎主  演 凯瑟琳·基纳 Catherine Keener
      詹森·艾萨克 Jason Isaacs
      蒂姆·夏普 Timm Sharp
      琼·库萨克 Joan Cusack
      格雷格·格曼 Greg Germann
      Hailey Noelle Johnson
      西蒙·迈克伯尼 Simon McBurney
      弗兰西斯·麦克多蒙德 Frances McDormand
      杰克·切里 Jake Cherry
      詹妮弗·安妮斯顿 Jennifer Aniston
      Bob Stephenson
      玛琳·辛科 Marin Hinkle
      斯科特·凯恩 Scott Caan
      Troy Ruptash
      伊丽莎白·基纳 Elizabeth Keener


◎标  签 美国 | JenniferAniston | 女性 | 美国电影 | 生活 | 爱情 | 剧情 | 2006

◎简  介

  奥利维亚(珍妮佛·安妮斯顿)有三个亲密无间的老朋友,四个女人多年为伴,无话不谈。随着人到中年,朋友的际遇各有不同,却都已然成家立业:她们一个成为著名的服装设计师,一个是当红剧作家,另一个继承大笔遗产,衣食无忧。相比之下,奥利维亚的生活真是一塌糊涂,她不仅单身未婚,而且刚刚丢了工作,生活陷入困境。
  虽然带着表面的尴尬与难堪,老友们依然不离不弃,帮奥利维亚介绍工作,介绍男友,却鲜有成效。其实老友们也有自己的烦恼,厌倦工作、厌倦婚姻、厌倦生活,每个人都切实感触着中年的危机与烦恼。奥利维亚游走在大商场,索要着免费的面霜试用装,借着老友的光参加各种高级派对,等待烦恼逝去,等待真命天子的到来。其实不管每个人多有钱,还不是都这样等待着……
Video
ID : 1
Format : AVC
Format/Info : Advanced Video Codec
Format profile : [email protected]
Format settings : CABAC / 4 Ref Frames
Format settings, CABAC : Yes
Format settings, Reference frames : 4 frames
Codec ID : V_MPEG4/ISO/AVC
Duration : 1 h 27 min
Bit rate : 11.4 Mb/s
Width : 1 920 pixels
Height : 1 080 pixels
Display aspect ratio : 16:9
Frame rate mode : Constant
Frame rate : 23.976 (24000/1001) FPS
Color space : YUV
Chroma subsampling : 4:2:0
Bit depth : 8 bits
Scan type : Progressive
Bits/(Pixel*Frame) : 0.230
Stream size : 7.01 GiB (95%)
Default : Yes
Forced : No
Color range : Limited
Color primaries : BT.709
Transfer characteristics : BT.709
Matrix coefficients : BT.709

Audio
ID : 2
Format : E-AC-3
Format/Info : Enhanced AC-3
Commercial name : Dolby Digital Plus
Codec ID : A_EAC3
Duration : 1 h 27 min
Bit rate mode : Constant
Bit rate : 640 kb/s
Channel(s) : 6 channels
Channel layout : L R C LFE Ls Rs
Sampling rate : 48.0 kHz
Frame rate : 31.250 FPS (1536 SPF)
Compression mode : Lossy
Stream size : 402 MiB (5%)
Language : English
Service kind : Complete Main
Default : Yes
Forced : No

Text
ID : 3
Format : UTF-8
Codec ID : S_TEXT/UTF8
Codec ID/Info : UTF-8 Plain Text
Duration : 1 h 27 min
Bit rate : 81 b/s
Count of elements : 1591
Stream size : 52.0 KiB (0%)
Title : English (SDH)
Language : English
Default : No
Forced : No





1 个附件 售价 大小 下载 时间

Friends.With.Money.2006.1080p.AMZN.WEBRip.DDP5.1.x264-SiGMA.torrent 0 金币 37.55K 266 次 23天前

#1楼
发帖时间:2019-10-22 02:43:46   |   回复数:1
911degrees
隐世仙人♂
非常感谢,谢谢分享
22天前 #2楼
游客组