conanlcg
超级版主

[更 早] [其他] [动作] [WEB-1080P] 吉祥賭坊 The.Casino.1972.CHINESE.1080p.AMZN.WEBRip.DDP2.0.x264-V3T0 4.16GB

-->

帖子完整标题:吉祥賭坊 The.Casino.1972.CHINESE.1080p.AMZN.WEBRip.DDP2.0.x264-V3T0 4.16GB




◎译  名 吉祥赌坊 / The Casino
◎片  名 吉祥賭坊
◎年  代 1972
◎产  地 中国香港
◎类  别 动作
◎语  言 汉语普通话
◎上映日期 1972-03-30
◎IMDb评分 6.8/10 from 33 users
◎IMDb链接 https://www.imdb.com/title/tt0165336
◎豆瓣评分 6.3/10 from 194 users
◎豆瓣链接 https://movie.douban.com/subject/1301736/
◎片  长 77分钟
◎导  演 张曾泽
◎编  剧 倪匡
◎主  演 何莉莉
      岳华
      金峰
      午马
      樊梅生


◎标  签 邵氏 | 香港 | 岳华 | 何莉莉 | 香港电影 | 张曾泽 | 1972 | 午马

◎简  介

  吉祥赌坊掌管人何莉莉下嫁与岳华,婚后岳说出赌博之害,及“以赌制赌”之意愿。何受岳所劝,宣布停业,谁料却惹祸上身……
  军阀混战的年代,地方恶霸豪强地主勾结官府开设赌坊,专门诱使一些有着侥幸心理和做发财梦的赌徒沉迷其中,结果弄得家破人亡,悔不当初。一对青梅竹马的情侣,他们两人的家庭都是以经营赌坊谋生的。吉祥赌坊掌管人何莉莉下嫁与岳华,男子在江湖上飘泊过一段时间,幡然醒悟,认识到赌博对人的毒害作用,他发奋练就一手精湛的赌术。岳华告诉何莉莉,他决心以赌制赌,请所有骗人的人自食其果。何莉莉接受岳华所劝,宣布停业。这男子与女人面对的赌坊郎中都是一帮有权有势的恶势力,两个人毫不妥协,经过不屈不挠的斗争,终于在一场浴血战斗中,慷慨捐躯。两人的鲜血使众多赌徒猛醒。
Video
ID : 1
Format : AVC
Format/Info : Advanced Video Codec
Format profile : [email protected]
Format settings : CABAC / 4 Ref Frames
Format settings, CABAC : Yes
Format settings, Reference frames : 4 frames
Codec ID : V_MPEG4/ISO/AVC
Duration : 1 h 17 min
Bit rate mode : Variable
Bit rate : 7 460 kb/s
Maximum bit rate : 15.0 Mb/s
Width : 1 920 pixels
Height : 816 pixels
Display aspect ratio : 2.35:1
Frame rate mode : Constant
Frame rate : 25.000 FPS
Color space : YUV
Chroma subsampling : 4:2:0
Bit depth : 8 bits
Scan type : Progressive
Bits/(Pixel*Frame) : 0.190
Stream size : 4.03 GiB (97%)
Title : The.Casino.1972.1080p.AMZN.WEBRip.DD2.0.x264-V3T0
Writing library : x264 core 148 r2623 d5b2374
Encoding settings : cabac=1 / ref=4 / deblock=1:-1:-1 / analyse=0x3:0x133 / me=umh / subme=9 / psy=1 / psy_rd=1.00:0.15 / mixed_ref=1 / me_range=24 / chroma_me=1 / trellis=2 / 8x8dct=1 / cqm=0 / deadzone=21,11 / fast_pskip=1 / chroma_qp_offset=-3 / threads=25 / lookahead_threads=4 / sliced_threads=0 / nr=150 / decimate=1 / interlaced=0 / bluray_compat=0 / constrained_intra=0 / bframes=8 / b_pyramid=2 / b_adapt=2 / b_bias=0 / direct=3 / weightb=1 / open_gop=0 / weightp=2 / keyint=125 / keyint_min=63 / scenecut=0 / intra_refresh=0 / rc_lookahead=125 / rc=crf / mbtree=1 / crf=18.0 / qcomp=0.60 / qpmin=0 / qpmax=69 / qpstep=4 / vbv_maxrate=15000 / vbv_bufsize=31250 / crf_max=0.0 / nal_hrd=vbr / filler=0 / ip_ratio=1.40 / aq=3:1.00
Language : Chinese
Default : Yes
Forced : No
Color range : Limited
Color primaries : BT.709
Transfer characteristics : BT.709
Matrix coefficients : BT.709

Audio
ID : 2
Format : E-AC-3
Format/Info : Enhanced AC-3
Commercial name : Dolby Digital Plus
Codec ID : A_EAC3
Duration : 1 h 17 min
Bit rate mode : Constant
Bit rate : 224 kb/s
Channel(s) : 2 channels
Channel layout : L R
Sampling rate : 48.0 kHz
Frame rate : 31.250 FPS (1536 SPF)
Compression mode : Lossy
Stream size : 124 MiB (3%)
Title : Mandarin
Language : Chinese
Service kind : Complete Main
Default : Yes
Forced : No

Text
ID : 3
Format : UTF-8
Codec ID : S_TEXT/UTF8
Codec ID/Info : UTF-8 Plain Text
Duration : 1 h 13 min
Bit rate : 40 b/s
Count of elements : 969
Stream size : 21.6 KiB (0%)
Title : English
Language : English
Default : Yes
Forced : No





1 个附件 售价 大小 下载 时间

The.Casino.1972.CHINESE.1080p.AMZN.WEBRip.DDP2.0.x264-V3T0.torrent 0 金币 83.71K 588 次 23天前

#1楼
发帖时间:2019-10-22 02:58:04   |   回复数:3
yangbo83222179
一代宗师
谢谢楼主分享,支持一下
22天前 #2楼
911degrees
隐世仙人♂
非常感谢,谢谢分享
22天前 #3楼
tanchoohoon
武林盟主
感谢楼主的无私分享
22天前 #4楼
游客组