conanlcg
超级版主

[2012] [欧美] [喜剧] [WEB-1080P] 摩西·卡舍尔:奥克兰直播秀 Moshe.Kasher.Live.in.Oakland.2012.1080p.AMZN.WEBRip.DDP2.0.x264-mo

-->

帖子完整标题:摩西·卡舍尔:奥克兰直播秀 Moshe.Kasher.Live.in.Oakland.2012.1080p.AMZN.WEBRip.DDP2.0.x264-monkee 5.58GB




◎译  名 摩西·卡舍尔:奥克兰直播秀
◎片  名 Moshe Kasher: Live in Oakland
◎年  代 2012
◎产  地 美国
◎类  别 喜剧
◎语  言 英语
◎IMDb评分 6.8/10 from 276 users
◎IMDb链接 https://www.imdb.com/title/tt2229301
◎豆瓣评分 0/10 from 0 users
◎豆瓣链接 https://movie.douban.com/subject/24858438/
◎编  剧 Moshe Kasher
◎主  演 Moshe Kasher


◎标  签 美国 | Stand-Up | Comedy | Stand-up | 2012 | 2010s

◎简  介

  暂无相关剧情介绍
Video
ID : 1
Format : AVC
Format/Info : Advanced Video Codec
Format profile : [email protected]
Format settings : CABAC / 4 Ref Frames
Format settings, CABAC : Yes
Format settings, Reference frames : 4 frames
Codec ID : V_MPEG4/ISO/AVC
Duration : 1 h 0 min
Bit rate mode : Variable
Bit rate : 12.7 Mb/s
Maximum bit rate : 15.0 Mb/s
Width : 1 920 pixels
Height : 1 080 pixels
Display aspect ratio : 16:9
Frame rate mode : Constant
Frame rate : 23.976 (24000/1001) FPS
Color space : YUV
Chroma subsampling : 4:2:0
Bit depth : 8 bits
Scan type : Progressive
Bits/(Pixel*Frame) : 0.255
Stream size : 5.37 GiB (96%)
Writing library : x264 core 148 r2623 d5b2374
Encoding settings : cabac=1 / ref=4 / deblock=1:-1:-1 / analyse=0x3:0x133 / me=umh / subme=9 / psy=1 / psy_rd=1.00:0.15 / mixed_ref=1 / me_range=24 / chroma_me=1 / trellis=2 / 8x8dct=1 / cqm=0 / deadzone=21,11 / fast_pskip=1 / chroma_qp_offset=-3 / threads=34 / lookahead_threads=5 / sliced_threads=0 / nr=150 / decimate=1 / interlaced=0 / bluray_compat=0 / constrained_intra=0 / bframes=8 / b_pyramid=2 / b_adapt=2 / b_bias=0 / direct=3 / weightb=1 / open_gop=0 / weightp=2 / keyint=120 / keyint_min=61 / scenecut=0 / intra_refresh=0 / rc_lookahead=120 / rc=crf / mbtree=1 / crf=18.0 / qcomp=0.60 / qpmin=0 / qpmax=69 / qpstep=4 / vbv_maxrate=15000 / vbv_bufsize=31250 / crf_max=0.0 / nal_hrd=vbr / filler=0 / ip_ratio=1.40 / aq=3:1.00
Default : Yes
Forced : No
Color range : Limited
Color primaries : BT.709
Transfer characteristics : BT.709
Matrix coefficients : BT.709

Audio
ID : 2
Format : E-AC-3
Format/Info : Enhanced AC-3
Commercial name : Dolby Digital Plus
Codec ID : A_EAC3
Duration : 1 h 0 min
Bit rate mode : Constant
Bit rate : 224 kb/s
Channel(s) : 2 channels
Channel layout : L R
Sampling rate : 48.0 kHz
Frame rate : 31.250 FPS (1536 SPF)
Compression mode : Lossy
Stream size : 97.1 MiB (2%)
Language : English
Service kind : Complete Main
Default : Yes
Forced : No

Text
ID : 3
Format : UTF-8
Codec ID : S_TEXT/UTF8
Codec ID/Info : UTF-8 Plain Text
Language : English
Default : No
Forced : No





1 个附件 售价 大小 下载 时间

Moshe.Kasher.Live.in.Oakland.2012.1080p.AMZN.WEBRip.DDP2.0.x264-monkee.torrent 0 金币 56.46K 175 次 22天前

#1楼
发帖时间:2019-10-22 03:03:57   |   回复数:2
chulps
一代宗师
ddd
22天前 #2楼
911degrees
隐世仙人♂
非常感谢,谢谢分享
21天前 #3楼
游客组