conanlcg
超级版主

[2007] [日本] [剧情] [BD-1080P] 天然子结构 A.Gentle.Breeze.in.the.Village.2007.1080p.BluRay.x264-REGRET 8.75GB

-->

帖子完整标题:天然子结构 A.Gentle.Breeze.in.the.Village.2007.1080p.BluRay.x264-REGRET 8.75GB




◎译  名 天然子结构 / A Gentle Breeze in the Village / Tennen kokekk? / 天然小村
◎片  名 天然コケッコー
◎年  代 2007
◎产  地 日本
◎类  别 剧情
◎语  言 日语
◎上映日期 2007-07-28(日本)
◎IMDb评分 7.3/10 from 858 users
◎IMDb链接 https://www.imdb.com/title/tt0997184
◎豆瓣评分 7.6/10 from 15218 users
◎豆瓣链接 https://movie.douban.com/subject/2042219/
◎片  长 121分钟
◎导  演 山下敦弘 Nobuhiro Yamashita
◎编  剧 渡边彩 Aya Watanabe
◎主  演 夏帆 Kaho
      冈田将生 Masaki Okada
      夏川结衣 Yui Natsukawa
      佐藤浩市 K?ichi Sat?


◎标  签 日本电影 | 日本 | 青春 | 夏帆 | 冈田将生 | 天然子结构 | 山下敦弘 | 2007

◎简  介

  右田素夜(夏帆 饰)在木村长大,那里简朴的生活环境十分舒适。素夜就读的中学是一所中小学的混合学校,虽然只有6个学生,年龄各异的孩子们相处融洽。
  从东京来的转校生大泽广海(冈田将生 饰)打破了村里孩子们的平静。面对这位同龄人,素夜表现热情,可是广海却十分自我,难以相处。
  夏天的时候,同学们都会一起到海边游泳。通向海边有一条捷径,可是那条捷径一直被村里人认为是灵异的地方,可是大泽却坚持走捷径。
  在那里,意外发生了,素夜陷入了困境,幸好大泽出手相助。素夜后来知道大泽是以前邻居的孙子,对大泽产生了好感。两人的交往却找来了素夜父亲的反对,素夜竟然发现了自己父亲与大泽母亲之间的过去。
  两人沉浸在初恋的甜蜜中,一起度过了重要的节日,可是毕业的一天还是到来了。

◎获奖情况

  第31届日本电影学院奖(2008)
  最佳新人 夏帆

  第32届报知映画赏(2007)
  最佳导演 山下敦弘
  最佳新人奖 夏帆
Video
ID : 1
Format : AVC
Format/Info : Advanced Video Codec
Format profile : [email protected]
Format settings : CABAC / 4 Ref Frames
Format settings, CABAC : Yes
Format settings, Reference frames : 4 frames
Codec ID : V_MPEG4/ISO/AVC
Duration : 2 h 1 min
Bit rate : 8 790 kb/s
Width : 1 920 pixels
Height : 1 040 pixels
Display aspect ratio : 1.85:1
Frame rate mode : Constant
Frame rate : 23.976 (24000/1001) FPS
Color space : YUV
Chroma subsampling : 4:2:0
Bit depth : 8 bits
Scan type : Progressive
Bits/(Pixel*Frame) : 0.184
Stream size : 7.46 GiB (85%)
Writing library : x264 core 157 r2970 5493be8
Encoding settings : cabac=1 / ref=4 / deblock=1:-3:-3 / analyse=0x3:0x133 / me=umh / subme=9 / psy=1 / psy_rd=1.00:0.00 / mixed_ref=1 / me_range=16 / chroma_me=1 / trellis=2 / 8x8dct=1 / cqm=0 / deadzone=21,11 / fast_pskip=0 / chroma_qp_offset=-2 / threads=24 / lookahead_threads=2 / sliced_threads=0 / nr=0 / decimate=1 / interlaced=0 / bluray_compat=0 / constrained_intra=0 / bframes=3 / b_pyramid=2 / b_adapt=1 / b_bias=0 / direct=3 / weightb=1 / open_gop=0 / weightp=2 / keyint=240 / keyint_min=24 / scenecut=40 / intra_refresh=0 / rc_lookahead=50 / rc=2pass / mbtree=1 / bitrate=8790 / ratetol=1.0 / qcomp=0.60 / qpmin=0 / qpmax=69 / qpstep=4 / cplxblur=20.0 / qblur=0.5 / ip_ratio=1.40 / aq=1:1.00
Language : English
Default : Yes
Forced : No

Audio
ID : 2
Format : DTS
Format/Info : Digital Theater Systems
Codec ID : A_DTS
Duration : 2 h 1 min
Bit rate mode : Constant
Bit rate : 1 509 kb/s
Channel(s) : 6 channels
Channel layout : C L R Ls Rs LFE
Sampling rate : 48.0 kHz
Frame rate : 93.750 FPS (512 SPF)
Bit depth : 24 bits
Compression mode : Lossy
Stream size : 1.28 GiB (15%)
Language : Japanese
Default : Yes
Forced : No

Text
ID : 3
Format : UTF-8
Codec ID : S_TEXT/UTF8
Codec ID/Info : UTF-8 Plain Text
Duration : 2 h 0 min
Bit rate : 28 b/s
Count of elements : 1117
Stream size : 24.8 KiB (0%)
Title : English
Language : English
Default : Yes
Forced : Yes

Menu
00:00:00.000 : en:00:00:00.000
00:08:17.831 : en:00:08:17.831
00:20:00.241 : en:00:20:00.241
00:25:25.357 : en:00:25:25.357
00:29:35.190 : en:00:29:35.190
00:34:46.459 : en:00:34:46.459
00:42:09.360 : en:00:42:09.360
00:53:20.322 : en:00:53:20.322
00:57:32.616 : en:00:57:32.616
01:09:16.527 : en:01:09:16.527
01:18:33.459 : en:01:18:33.459
01:28:59.334 : en:01:28:59.334
01:33:14.088 : en:01:33:14.088
01:39:02.270 : en:01:39:02.270
01:43:34.917 : en:01:43:34.917
01:49:43.869 : en:01:49:43.869





1 个附件 售价 大小 下载 时间

A.Gentle.Breeze.in.the.Village.2007.1080p.BluRay.x264-REGRET.torrent 0 金币 44.42K 1001 次 22天前

#1楼
发帖时间:2019-10-22 03:52:55   |   回复数:3
luocheng7052
武林高手
多谢楼主分享
22天前 #2楼
911degrees
隐世仙人♂
非常感谢,谢谢分享
21天前 #3楼
conincc
江湖小虾
不错 不错 支持一个 !!!
21天前 #4楼
游客组