conanlcg
超级版主

[2018] [其他] [剧情] [BD-720P] 顿巴斯 Donbass.2018.LiMiTED.REPACK.720p.BluRay.x264-CADAVER 5.47GB

-->

帖子完整标题:顿巴斯 Donbass.2018.LiMiTED.REPACK.720p.BluRay.x264-CADAVER 5.47GB




◎译  名 顿巴斯 / Donbass / 疯狂的边境(港) / 着魔的国境(台)
◎片  名 Донбас
◎年  代 2018
◎产  地 德国 / 乌克兰 / 法国 / 荷兰 / 罗马尼亚
◎类  别 剧情
◎语  言 乌克兰语 / 俄语
◎上映日期 2018-05-09(戛纳电影节) / 2018-08-30(德国) / 2018-09-26(法国)
◎IMDb评分 6.7/10 from 2300 users
◎IMDb链接 https://www.imdb.com/title/tt8282042
◎豆瓣评分 6.0/10 from 505 users
◎豆瓣链接 https://movie.douban.com/subject/27098584/
◎片  长 121分钟
◎导  演 谢尔盖·洛兹尼查 Sergei Loznitsa
◎编  剧 谢尔盖·洛兹尼查 Sergei Loznitsa
◎主  演 瓦列留·安德留察 Valeriu Andriuta
      鲍里斯·卡莫尔津 Boris Kamorzin
      谢尔盖·科列索夫 Sergei Kolesov


◎标  签 乌克兰 | 2018 | 战争 | 政治 | 德国 | 剧情 | 戛纳电影节 | 罗马尼亚

◎简  介

  一场战争在乌克兰东部的顿巴斯爆发,由此衍生出军事冲突、犯罪行动以及分裂主义者主导的大肆劫掠。在顿巴斯,战争已是常态,政府宣传自诩真相之源,仇恨变成了爱的方式。走入顿巴斯,就像踏上一场疯狂的旅行,悲剧和荒谬与生死相交织。这并不是一个关于某个地区、某个国家或某种政治体系的故 事,而是展示了一个迷失于谎言与真相,寻找自我身份的失落的世界,这事关我们每一个人。

◎获奖情况

  第71届戛纳电影节(2018)
  一种关注单元 一种关注大奖(提名) 谢尔盖·洛兹尼察
  一种关注单元 最佳导演 谢尔盖·洛兹尼察

  第48届鹿特丹国际电影节(2019)
  KNF奖(提名) 谢尔盖·洛兹尼察
Video
ID : 2
Format : AVC
Format/Info : Advanced Video Codec
Format profile : [email protected]
Format settings : CABAC / 12 Ref Frames
Format settings, CABAC : Yes
Format settings, Reference frames : 12 frames
Codec ID : V_MPEG4/ISO/AVC
Duration : 2 h 1 min
Bit rate : 4 924 kb/s
Width : 1 280 pixels
Height : 536 pixels
Display aspect ratio : 2.40:1
Frame rate mode : Constant
Frame rate : 23.976 (24000/1001) FPS
Color space : YUV
Chroma subsampling : 4:2:0
Bit depth : 8 bits
Scan type : Progressive
Bits/(Pixel*Frame) : 0.299
Stream size : 4.18 GiB (77%)
Writing library : x264 core 157 r2969 d4099dd
Encoding settings : cabac=1 / ref=12 / deblock=1:-3:-3 / analyse=0x3:0x133 / me=umh / subme=9 / psy=1 / psy_rd=1.00:0.00 / mixed_ref=1 / me_range=24 / chroma_me=1 / trellis=1 / 8x8dct=1 / cqm=0 / deadzone=21,11 / fast_pskip=0 / chroma_qp_offset=-2 / threads=17 / lookahead_threads=2 / sliced_threads=0 / nr=0 / decimate=1 / interlaced=0 / bluray_compat=0 / constrained_intra=0 / bframes=8 / b_pyramid=2 / b_adapt=2 / b_bias=0 / direct=3 / weightb=1 / open_gop=0 / weightp=2 / keyint=250 / keyint_min=23 / scenecut=40 / intra_refresh=0 / rc_lookahead=60 / rc=2pass / mbtree=1 / bitrate=4924 / ratetol=1.0 / qcomp=0.60 / qpmin=0 / qpmax=69 / qpstep=4 / cplxblur=20.0 / qblur=0.5 / vbv_maxrate=62500 / vbv_bufsize=78125 / nal_hrd=none / filler=0 / ip_ratio=1.40 / aq=1:1.00
Default : Yes
Forced : No

Audio
ID : 3
Format : DTS
Format/Info : Digital Theater Systems
Codec ID : A_DTS
Duration : 2 h 1 min
Bit rate mode : Constant
Bit rate : 1 509 kb/s
Channel(s) : 6 channels
Channel layout : C L R Ls Rs LFE
Sampling rate : 48.0 kHz
Frame rate : 93.750 FPS (512 SPF)
Bit depth : 24 bits
Compression mode : Lossy
Stream size : 1.28 GiB (23%)
Language : Russian
Default : Yes
Forced : No

Text
ID : 1
Format : UTF-8
Codec ID : S_TEXT/UTF8
Codec ID/Info : UTF-8 Plain Text
Duration : 1 h 55 min
Bit rate : 45 b/s
Count of elements : 1422
Stream size : 38.4 KiB (0%)
Language : English
Default : Yes
Forced : No

Menu
00:00:00.000 : en:Chapter 01
00:08:38.852 : en:Chapter 02
00:18:34.613 : en:Chapter 03
00:33:32.886 : en:Chapter 04
00:41:13.096 : en:Chapter 05
00:49:56.202 : en:Chapter 06
01:00:18.865 : en:Chapter 07
01:08:33.484 : en:Chapter 08
01:19:18.295 : en:Chapter 09
01:27:50.891 : en:Chapter 10
01:40:25.728 : en:Chapter 11
01:47:07.671 : en:Chapter 12





1 个附件 售价 大小 下载 时间

Donbass.2018.LiMiTED.REPACK.720p.BluRay.x264-CADAVER.torrent 0 金币 28.27K 651 次 22天前

#1楼
发帖时间:2019-10-22 06:33:44   |   回复数:3
亚瑟王
一派掌门
谢谢楼主分享
22天前 #2楼
911degrees
隐世仙人♂
非常感谢,谢谢分享
22天前 #3楼
OOOOO
一派掌门

❀❀❀❀

20天前 #4楼
游客组