conanlcg
超级版主

[2019] [欧美] [惊悚] [BD-Remux] 燃烧 Burn.2019.1080p.BluRay.REMUX.AVC.DTS-HD.MA.TrueHD.5.1-FGT 23.76GB

-->

帖子完整标题:燃烧 Burn.2019.1080p.BluRay.REMUX.AVC.DTS-HD.MA.TrueHD.5.1-FGT 23.76GB




◎译  名 燃烧 / Plume / 羽毛
◎片  名 Burn
◎年  代 2019
◎产  地 美国
◎类  别 惊悚
◎语  言 英语
◎上映日期 2019-08-23(美国)
◎IMDb链接 http://www.imdb.com/title/tt8009314
◎豆瓣评分 0/10 from 0 users
◎豆瓣链接 https://movie.douban.com/subject/30155105/
◎片  长 87分钟
◎导  演 Mike Gan
◎编  剧 Mike Gan
◎主  演 乔什·哈切森 Josh Hutcherson
      苏琪·沃特豪斯 Suki Waterhouse
      岑勇康 Harry Shum Jr.
      希罗·弗南德兹 Shiloh Fernandez
      蒂尔达·格哈姆-哈维 Tilda Cobham-Hervey
      吉姆·戴佛提 Jim Devoti
      John D. Hickman
      Wayne Pyle
      Rob Figueroa
      Winter-Lee Holland


◎标  签 惊悚 | 美国 | 犯罪 | 苏琪·沃特豪斯 | 美国电影 | 乔什·哈切森 | 2019

◎简  介

  岑勇康、希罗·费尔南德斯加盟惊悚新片《羽毛》(Plume),乔什·哈切森、苏琪·沃特豪斯、蒂尔达·格哈姆-哈维主演,华裔Mike Gan自编自导。故事围绕一个孤独、情绪不稳定的加油站服务员Melinda(哈维)展开,她受够了被更自信、外向的同事Sheila(沃特豪斯)所掩盖,当一个急需现金、绝望的男人Billy(哈切森)持枪劫持加油站时,Melinda找到了一个机会和他建立联系,不管是否有人受伤。
  岑勇康饰演刘警官,道德良好、正直,受到Melinda的迷恋。费尔南德斯饰演Sheila男友Perry,被无意中卷进了她的危险游戏中。
  这是Mike Gan执导的首部长片,此前他执导的短片《No Evil》曾亮相多伦多电影节和棕榈泉电影节。
Video
ID : 1
Format : AVC
Format/Info : Advanced Video Codec
Format profile : [email protected]
Format settings : CABAC / 4 Ref Frames
Format settings, CABAC : Yes
Format settings, Reference frames : 4 frames
Codec ID : V_MPEG4/ISO/AVC
Duration : 1 h 28 min
Bit rate mode : Variable
Bit rate : 27.2 Mb/s
Maximum bit rate : 35.0 Mb/s
Width : 1 920 pixels
Height : 1 080 pixels
Display aspect ratio : 16:9
Frame rate mode : Constant
Frame rate : 23.976 (24000/1001) FPS
Standard : NTSC
Color space : YUV
Chroma subsampling : 4:2:0
Bit depth : 8 bits
Scan type : Progressive
Bits/(Pixel*Frame) : 0.547
Stream size : 16.8 GiB (71%)
Title : Burn.2019.1080p.BluRay.REMUX.AVC.DTS-HD.MA.TrueHD.5.1-FGT
Language : English
Default : No
Forced : No
Color range : Limited
Color primaries : BT.709
Transfer characteristics : BT.709
Matrix coefficients : BT.709

Audio #1
ID : 2
Format : MLP FBA
Format/Info : Meridian Lossless Packing FBA
Commercial name : Dolby TrueHD
Codec ID : A_TRUEHD
Duration : 1 h 28 min
Bit rate mode : Variable
Bit rate : 3 003 kb/s
Maximum bit rate : 4 884 kb/s
Channel(s) : 6 channels
Channel layout : L R C LFE Ls Rs
Sampling rate : 48.0 kHz
Frame rate : 1 200.000 FPS (40 SPF)
Compression mode : Lossless
Stream size : 1.85 GiB (8%)
Title : Burn.2019.1080p.BluRay.REMUX.AVC.DTS-HD.MA.TrueHD.5.1-FGT
Language : English
Default : Yes
Forced : No

Audio #2
ID : 3
Format : DTS XLL
Format/Info : Digital Theater Systems
Commercial name : DTS-HD Master Audio
Codec ID : A_DTS
Duration : 1 h 28 min
Bit rate mode : Variable
Bit rate : 3 718 kb/s
Channel(s) : 6 channels
Channel layout : C L R Ls Rs LFE
Sampling rate : 48.0 kHz
Frame rate : 93.750 FPS (512 SPF)
Bit depth : 24 bits
Compression mode : Lossless
Stream size : 2.29 GiB (10%)
Title : Burn.2019.1080p.BluRay.REMUX.AVC.DTS-HD.MA.TrueHD.5.1-FGT
Language : English
Default : No
Forced : No

Audio #3
ID : 4
Format : AC-3
Format/Info : Audio Coding 3
Commercial name : Dolby Digital
Codec ID : A_AC3
Duration : 1 h 28 min
Bit rate mode : Constant
Bit rate : 640 kb/s
Channel(s) : 6 channels
Channel layout : L R C LFE Ls Rs
Sampling rate : 48.0 kHz
Frame rate : 31.250 FPS (1536 SPF)
Bit depth : 16 bits
Compression mode : Lossy
Stream size : 404 MiB (2%)
Title : Burn.2019.1080p.BluRay.REMUX.AVC.DTS-HD.MA.TrueHD.5.1-FGT
Language : English
Service kind : Complete Main
Default : No
Forced : No

Audio #4
ID : 5
Format : MLP FBA
Format/Info : Meridian Lossless Packing FBA
Commercial name : Dolby TrueHD
Codec ID : A_TRUEHD
Duration : 1 h 28 min
Bit rate mode : Variable
Bit rate : 3 167 kb/s
Maximum bit rate : 5 073 kb/s
Channel(s) : 6 channels
Channel layout : L R C LFE Ls Rs
Sampling rate : 48.0 kHz
Frame rate : 1 200.000 FPS (40 SPF)
Compression mode : Lossless
Stream size : 1.95 GiB (8%)
Title : Burn.2019.1080p.BluRay.REMUX.AVC.DTS-HD.MA.TrueHD.5.1-FGT
Language : French
Default : No
Forced : No

Audio #5
ID : 6
Format : AC-3
Format/Info : Audio Coding 3
Commercial name : Dolby Digital
Codec ID : A_AC3
Duration : 1 h 28 min
Bit rate mode : Constant
Bit rate : 640 kb/s
Channel(s) : 6 channels
Channel layout : L R C LFE Ls Rs
Sampling rate : 48.0 kHz
Frame rate : 31.250 FPS (1536 SPF)
Bit depth : 16 bits
Compression mode : Lossy
Stream size : 404 MiB (2%)
Title : Burn.2019.1080p.BluRay.REMUX.AVC.DTS-HD.MA.TrueHD.5.1-FGT
Language : French
Service kind : Complete Main
Default : No
Forced : No

Text #1
ID : 7
Format : UTF-8
Codec ID : S_TEXT/UTF8
Codec ID/Info : UTF-8 Plain Text
Duration : 1 h 21 min
Bit rate : 53 b/s
Count of elements : 1084
Stream size : 31.7 KiB (0%)
Title : English-SRT
Language : English
Default : Yes
Forced : No

Text #2
ID : 8
Format : PGS
Muxing mode : zlib
Codec ID : S_HDMV/PGS
Codec ID/Info : Picture based subtitle format used on BDs/HD-DVDs
Duration : 1 h 21 min
Bit rate : 26.2 kb/s
Count of elements : 2244
Stream size : 15.3 MiB (0%)
Title : English-PGS
Language : English
Default : No
Forced : No

Text #3
ID : 9
Format : PGS
Muxing mode : zlib
Codec ID : S_HDMV/PGS
Codec ID/Info : Picture based subtitle format used on BDs/HD-DVDs
Duration : 1 h 27 min
Bit rate : 27.2 kb/s
Count of elements : 2364
Stream size : 17.1 MiB (0%)
Title : French-PGS
Language : French
Default : No
Forced : No

Text #4
ID : 10
Format : PGS
Muxing mode : zlib
Codec ID : S_HDMV/PGS
Codec ID/Info : Picture based subtitle format used on BDs/HD-DVDs
Duration : 56 min 23 s
Bit rate : 117 b/s
Count of elements : 8
Stream size : 48.7 KiB (0%)
Title : French-FORCED-PGS
Language : French
Default : No
Forced : No

Menu
00:00:00.000 : en:Chapter 01
00:11:26.394 : en:Chapter 02
00:24:29.885 : en:Chapter 03
00:37:16.609 : en:Chapter 04
00:52:20.095 : en:Chapter 05
01:05:51.113 : en:Chapter 06
01:18:34.543 : en:Chapter 07
01:21:28.884 : en:Chapter 08





1 个附件 售价 大小 下载 时间

Burn.2019.1080p.BluRay.REMUX.AVC.DTS-HD.MA.TrueHD.5.1-FGT.torrent 0 金币 59.95K 1008 次 25天前

#1楼
发帖时间:2019-11-13 21:36:07   |   回复数:1
911degrees
隐世仙人♂
非常感谢,谢谢分享
25天前 #2楼
游客组