conanlcg
超级版主

[更 早] [其他] [剧情] [BD-1080P] 我们如此相爱 We.All.Loved.Each.Other.So.Much.1974.ITALIAN.1080p.BluRay.x264-HANDJOB 8.

-->

帖子完整标题:我们如此相爱 We.All.Loved.Each.Other.So.Much.1974.ITALIAN.1080p.BluRay.x264-HANDJOB 8.17GB




◎译  名 我们如此相爱 / We All Loved Each Other So Much
◎片  名 C'eravamo tanto amati
◎年  代 1974
◎产  地 意大利
◎类  别 剧情 / 喜剧
◎语  言 意大利语
◎上映日期 1974-12-21(意大利)
◎IMDb评分 8.1/10 from 4647 users
◎IMDb链接 https://www.imdb.com/title/tt0075793
◎豆瓣评分 8.3/10 from 702 users
◎豆瓣链接 https://movie.douban.com/subject/1306049/
◎片  长 124 分钟
◎导  演 埃托尔·斯科拉 Ettore Scola
◎编  剧 艾根诺尔·因克鲁西 Agenore Incrocci / 埃托尔·斯科拉 Ettore Scola / 富里奥·斯卡派利 Furio Scarpelli
◎主  演 斯蒂芬尼娅·桑德雷莉 Stefania Sandrelli
      尼诺·曼弗莱迪 Nino Manfredi
      Stefano Satta Flores
      维托里奥·加斯曼 Vittorio Gassman
      乔凡娜·拉利 Giovanna Ralli
      Aldo Fabrizi
      Mike Bongiorno
      费德里科·费里尼 Federico Fellini
      马塞洛·马斯楚安尼 Marcello Mastroianni


◎标  签 意大利 | 意大利电影 | 爱情 | 喜剧 | 1970s | EttoreScola | 我们如此相爱 | Ettore_Scola

◎简  介

  安东尼奥(尼诺·曼弗莱迪 Nino Manfredi 饰)、贾尼(维托里奥·加斯曼 Vittorio Gassman 饰)和尼古拉(Stefano Satta Flores 饰)是战争时代的生死之交。战争结束后,他们回归了家乡,开始了各自迥异的生活。安东尼奥结识了美丽女孩露西安娜(斯蒂芬尼娅·桑德雷莉 Stefania Sandrelli 饰),坠入了情网,可露西安娜喜欢的却偏偏是贾尼。
  可最终,贾尼选择同侯爵女儿结婚,露西安娜陷入了痛苦之中,此时,安东尼奥再度出现在了露西安娜的身边,陪伴守护着她。露西安娜一直希望能够成为一名演员,为了实现理想,她甚至不惜向负责挑选演员的负责人献出了肉体。几经波折,安东尼奥和露西安娜总算坦诚相对,互诉衷肠,一对璧人终于走到了一起。
Video
ID : 1
Format : AVC
Format/Info : Advanced Video Codec
Format profile : [email protected]
Format settings : CABAC / 4 Ref Frames
Format settings, CABAC : Yes
Format settings, Reference frames : 4 frames
Codec ID : V_MPEG4/ISO/AVC
Duration : 2 h 4 min
Bit rate : 9 053 kb/s
Width : 1 920 pixels
Height : 1 040 pixels
Display aspect ratio : 1.85:1
Frame rate mode : Constant
Frame rate : 24.000 FPS
Color space : YUV
Chroma subsampling : 4:2:0
Bit depth : 8 bits
Scan type : Progressive
Bits/(Pixel*Frame) : 0.189
Stream size : 7.86 GiB (96%)
Writing library : x264 core 157 r2935 545de2f
Encoding settings : cabac=1 / ref=4 / deblock=1:-3:-3 / analyse=0x3:0x133 / me=umh / subme=10 / psy=1 / psy_rd=1.00:0.00 / mixed_ref=1 / me_range=32 / chroma_me=1 / trellis=2 / 8x8dct=1 / cqm=0 / deadzone=21,11 / fast_pskip=0 / chroma_qp_offset=-2 / threads=18 / lookahead_threads=4 / sliced_threads=0 / nr=0 / decimate=0 / interlaced=0 / bluray_compat=0 / constrained_intra=0 / bframes=16 / b_pyramid=2 / b_adapt=2 / b_bias=0 / direct=3 / weightb=1 / open_gop=0 / weightp=1 / keyint=240 / keyint_min=24 / scenecut=40 / intra_refresh=0 / rc_lookahead=60 / rc=crf / mbtree=0 / crf=23.5 / qcomp=0.60 / qpmin=0 / qpmax=69 / qpstep=4 / vbv_maxrate=62500 / vbv_bufsize=78125 / crf_max=0.0 / nal_hrd=none / filler=0 / ip_ratio=1.40 / pb_ratio=1.30 / aq=2:1.00
Default : Yes
Forced : No
Color range : Limited
Color primaries : BT.709
Transfer characteristics : BT.709
Matrix coefficients : BT.709

Audio
ID : 2
Format : FLAC
Format/Info : Free Lossless Audio Codec
Codec ID : A_FLAC
Duration : 2 h 4 min
Bit rate mode : Variable
Bit rate : 268 kb/s
Channel(s) : 2 channels
Sampling rate : 48.0 kHz
Frame rate : 11.719 FPS (4096 SPF)
Bit depth : 16 bits
Compression mode : Lossless
Stream size : 238 MiB (3%)
Writing library : libFLAC 1.2.1 (UTC 2007-09-17)
Language : Italian
Default : Yes
Forced : No

Text #1
ID : 3
Format : UTF-8
Codec ID : S_TEXT/UTF8
Codec ID/Info : UTF-8 Plain Text
Duration : 2 h 1 min
Bit rate : 76 b/s
Count of elements : 1676
Stream size : 67.5 KiB (0%)
Language : English
Default : Yes
Forced : No

Text #2
ID : 4
Format : PGS
Codec ID : S_HDMV/PGS
Codec ID/Info : Picture based subtitle format used on BDs/HD-DVDs
Duration : 2 h 3 min
Bit rate : 30.2 kb/s
Count of elements : 1568
Stream size : 26.7 MiB (0%)
Language : Finnish
Default : No
Forced : No

Text #3
ID : 5
Format : PGS
Codec ID : S_HDMV/PGS
Codec ID/Info : Picture based subtitle format used on BDs/HD-DVDs
Duration : 2 h 3 min
Bit rate : 27.6 kb/s
Count of elements : 1590
Stream size : 24.4 MiB (0%)
Language : Norwegian
Default : No
Forced : No

Text #4
ID : 6
Format : PGS
Codec ID : S_HDMV/PGS
Codec ID/Info : Picture based subtitle format used on BDs/HD-DVDs
Duration : 2 h 4 min
Bit rate : 27.7 kb/s
Count of elements : 1463
Stream size : 24.6 MiB (0%)
Language : Swedish
Default : No
Forced : No

Menu
00:00:00.000 : :Chapter 1
00:15:15.917 : :Chapter 2
00:30:59.792 : :Chapter 3
00:46:01.750 : :Chapter 4
01:01:33.208 : :Chapter 5
01:15:23.250 : :Chapter 6
01:32:04.042 : :Chapter 7
01:45:49.083 : :Chapter 8





1 个附件 售价 大小 下载 时间

We.All.Loved.Each.Other.So.Much.1974.ITALIAN.1080p.BluRay.x264-HANDJOB.torrent 0 金币 41.42K 476 次 25天前

#1楼
发帖时间:2019-11-13 22:25:16   |   回复数:1
911degrees
隐世仙人♂
非常感谢,谢谢分享
25天前 #2楼
游客组