conanlcg
超级版主

[2008] [欧美] [喜剧] [BD-1080P] 小矮人篮球队 The.Minis.2009.1080p.BluRay.x264-SoW 9.00GB

-->

帖子完整标题:小矮人篮球队 The.Minis.2009.1080p.BluRay.x264-SoW 9.00GB




◎译  名 小矮人篮球队 / The Minis…nani a canestro!
◎片  名 The Minis
◎年  代 2008
◎产  地 美国
◎类  别 喜剧
◎语  言 英语
◎上映日期 2008
◎IMDb评分 2.4/10 from 396 users
◎IMDb链接 https://www.imdb.com/title/tt1009017
◎豆瓣评分 4.9/10 from 105 users
◎豆瓣链接 https://movie.douban.com/subject/3290821/
◎导  演 Valerio Zanoli
◎编  剧 Valerio Zanoli
◎主  演 Dennis Rodman
      Gabriel Pimentel
      Joe Gnoffo
      Dana Woods
      Bradley Laise


◎标  签 美国 | 美国电影 | 喜剧 | 搞笑 | 篮球 | 丹尼斯·罗德曼 | 2008 | 欧美电影

◎简  介

  罗德曼身边不再是美女和汽车,而是一群可爱的小矮人,不是一个白雪公主和七个小矮人的故事,而是一头野兽和四个小矮人的故事。 罗德曼的新电影《The Minis(小矮人篮球队)》,在该片中,罗德曼就饰演球队“The Minis”的主教练,他手下只有四名队员,都是清一色的小矮人。罗德曼饰演的教练和他的性格很像,特立独行,我行我素。他穿着球衣指挥比赛,而球衣上的号码仍然是他当年初入活塞时穿的10号。
Video
ID : 1
Format : AVC
Format/Info : Advanced Video Codec
Format profile : [email protected]
Format settings : CABAC / 4 Ref Frames
Format settings, CABAC : Yes
Format settings, Reference frames : 4 frames
Codec ID : V_MPEG4/ISO/AVC
Duration : 1 h 16 min
Bit rate : 16.5 Mb/s
Width : 1 920 pixels
Height : 1 080 pixels
Display aspect ratio : 16:9
Frame rate mode : Constant
Frame rate : 25.000 FPS
Color space : YUV
Chroma subsampling : 4:2:0
Bit depth : 8 bits
Scan type : Progressive
Bits/(Pixel*Frame) : 0.319
Stream size : 8.80 GiB (98%)
Writing library : x264 core 88 r1471 1144615
Encoding settings : cabac=1 / ref=4 / deblock=1:0:0 / analyse=0x3:0x133 / me=umh / subme=7 / psy=1 / psy_rd=1.00:0.00 / mixed_ref=1 / me_range=16 / chroma_me=1 / trellis=1 / 8x8dct=1 / cqm=0 / deadzone=21,11 / fast_pskip=0 / chroma_qp_offset=-2 / threads=6 / sliced_threads=0 / nr=0 / decimate=1 / mbaff=0 / constrained_intra=0 / bframes=3 / b_pyramid=2 / b_adapt=2 / b_bias=0 / direct=1 / wpredb=1 / wpredp=0 / keyint=250 / keyint_min=25 / scenecut=40 / intra_refresh=0 / rc_lookahead=40 / rc=crf / mbtree=1 / crf=20.0 / qcomp=0.60 / qpmin=10 / qpmax=51 / qpstep=4 / ip_ratio=1.40 / aq=1:1.00
Language : English
Default : Yes
Forced : No

Audio
ID : 2
Format : AC-3
Format/Info : Audio Coding 3
Commercial name : Dolby Digital
Codec ID : A_AC3
Duration : 1 h 16 min
Bit rate mode : Constant
Bit rate : 384 kb/s
Channel(s) : 2 channels
Channel layout : L R
Sampling rate : 48.0 kHz
Frame rate : 31.250 FPS (1536 SPF)
Bit depth : 16 bits
Compression mode : Lossy
Stream size : 209 MiB (2%)
Language : English
Service kind : Complete Main
Default : No
Forced : No





1 个附件 售价 大小 下载 时间

The.Minis.2009.1080p.BluRay.x264-SoW.torrent 0 金币 45.53K 189 次 22天前

#1楼
发帖时间:2019-11-13 22:31:23   |   回复数:3
zhangyihuai
小有名气
小矮人篮球队
22天前 #2楼
751qscwad
一派掌门
第一次听说这个电影,看看罗德曼
22天前 #3楼
911degrees
隐世仙人♂
非常感谢,谢谢分享
21天前 #4楼
游客组