coor
武林高手

[2013] [其他] [剧情] [WEB-1080P] 鲜花之日 Day.of.the.Flowers.2012.1080p.AMZN.WEBRip.DD5.1.x264-monkee 9.63GB

-->

帖子完整标题:鲜花之日 Day.of.the.Flowers.2012.1080p.AMZN.WEBRip.DD5.1.x264-monkee 9.63GB




◎译  名 鲜花之日
◎片  名 Day of the Flowers
◎年  代 2013
◎产  地 英国 / 古巴
◎类  别 剧情 / 喜剧 / 爱情
◎语  言 英语
◎上映日期 2013-11-29(英国)
◎IMDb评分 5.5/10 from 310 users
◎IMDb链接 https://www.imdb.com/title/tt1566503
◎豆瓣评分 0/10 from 0 users
◎豆瓣链接 https://movie.douban.com/subject/5159098/
◎导  演 John Roberts
◎编  剧 Eirene Houston
◎主  演 Eva Birthistle
      Charity Wakefield
      Carlos Acosta


◎标  签 2013 | 2010s | 英国 | 苏格兰 | 神秘学姐 | 国家_英国 | 国家_古巴 | 古巴

◎简  介

  意志坚定的苏格兰姐妹罗萨(艾娃·伯斯托尔饰)和艾丽(查丽蒂·维克菲尔德饰),一个是左翼活动家,一个是时尚达人,为将已逝父亲的骨灰送回古巴而踏上一段奇异旅程。兴奋地到达哈瓦那后,她们却发现骨灰盒不翼而飞,之后奇妙的结识了临时导游托马斯(卡洛斯·阿科斯塔饰),并经历了一系列不幸遭遇,但亲情这根线始终将她们牢固地绑在一起。
Video
ID : 1
Format : AVC
Format/Info : Advanced Video Codec
Format profile : [email protected]
Format settings : CABAC / 4 Ref Frames
Format settings, CABAC : Yes
Format settings, Reference frames : 4 frames
Codec ID : V_MPEG4/ISO/AVC
Duration : 1 h 39 min
Bit rate mode : Variable
Bit rate : 13.2 Mb/s
Maximum bit rate : 15.0 Mb/s
Width : 1 920 pixels
Height : 1 040 pixels
Display aspect ratio : 1.85:1
Frame rate mode : Constant
Frame rate : 23.976 (24000/1001) FPS
Color space : YUV
Chroma subsampling : 4:2:0
Bit depth : 8 bits
Scan type : Progressive
Bits/(Pixel*Frame) : 0.275
Stream size : 9.18 GiB (95%)
Default : Yes
Forced : No
Color range : Limited
Color primaries : BT.709
Transfer characteristics : BT.709
Matrix coefficients : BT.709

Audio
ID : 2
Format : E-AC-3
Format/Info : Enhanced AC-3
Commercial name : Dolby Digital Plus
Codec ID : A_EAC3
Duration : 1 h 39 min
Bit rate mode : Constant
Bit rate : 640 kb/s
Channel(s) : 6 channels
Channel layout : L R C LFE Ls Rs
Sampling rate : 48.0 kHz
Frame rate : 31.250 FPS (1536 SPF)
Compression mode : Lossy
Stream size : 456 MiB (5%)
Language : English
Service kind : Complete Main
Default : Yes
Forced : No





1 个附件 售价 大小 下载 时间

Day.of.the.Flowers.2012.1080p.AMZN.WEBRip.DD5.1.x264-monkee.torrent 0 金币 48.68K 266 次 4天前

#1楼
发帖时间:2019-12-03 22:47:38   |   回复数:1
911degrees
隐世仙人♂
非常感谢,谢谢分享
3天前 #2楼
游客组