coor
武林高手

[更 早] [欧美] [剧情] [WEB-1080P] 黄金岁月 The.Best.of.Times.1986.1080p.AMZN.WEBRip.DD2.0.x264-monkee 9.77GB

-->

帖子完整标题:黄金岁月 The.Best.of.Times.1986.1080p.AMZN.WEBRip.DD2.0.x264-monkee 9.77GB




◎译  名 黄金岁月
◎片  名 The Best of Times
◎年  代 1986
◎产  地 美国
◎类  别 剧情 / 喜剧 / 运动
◎语  言 英语
◎上映日期 1986-01-31
◎IMDb评分 6.0/10 from 6175 users
◎IMDb链接 https://www.imdb.com/title/tt0090713
◎豆瓣评分 0/10 from 0 users
◎豆瓣链接 https://movie.douban.com/subject/1292488/
◎片  长 104 分钟
◎导  演 罗杰 斯波蒂斯伍德 (Roger Spottiswoode)
◎编  剧 罗恩 谢尔顿 (Ron Shelton)
◎主  演 Robin Williams


◎标  签 美国 | 演员威廉·罗宾姆斯 | RobinWilliams | 想看的 | 1986 | 罗宾 | 励志 |  Robbin-Williams 

◎简  介

  暂无相关剧情介绍
Video
ID : 1
Format : AVC
Format/Info : Advanced Video Codec
Format profile : [email protected]
Format settings : CABAC / 4 Ref Frames
Format settings, CABAC : Yes
Format settings, Reference frames : 4 frames
Codec ID : V_MPEG4/ISO/AVC
Duration : 1 h 44 min
Bit rate mode : Variable
Bit rate : 13.2 Mb/s
Maximum bit rate : 15.0 Mb/s
Width : 1 920 pixels
Height : 1 080 pixels
Display aspect ratio : 16:9
Frame rate mode : Constant
Frame rate : 23.976 (24000/1001) FPS
Color space : YUV
Chroma subsampling : 4:2:0
Bit depth : 8 bits
Scan type : Progressive
Bits/(Pixel*Frame) : 0.266
Stream size : 9.61 GiB (98%)
Default : Yes
Forced : No
Color range : Limited
Color primaries : BT.709
Transfer characteristics : BT.709
Matrix coefficients : BT.709

Audio
ID : 2
Format : E-AC-3
Format/Info : Enhanced AC-3
Commercial name : Dolby Digital Plus
Codec ID : A_EAC3
Duration : 1 h 44 min
Bit rate mode : Constant
Bit rate : 224 kb/s
Channel(s) : 2 channels
Channel layout : L R
Sampling rate : 48.0 kHz
Frame rate : 31.250 FPS (1536 SPF)
Compression mode : Lossy
Stream size : 167 MiB (2%)
Language : English
Service kind : Complete Main
Default : Yes
Forced : No

Text
ID : 3
Format : UTF-8
Codec ID : S_TEXT/UTF8
Codec ID/Info : UTF-8 Plain Text
Duration : 1 h 42 min
Bit rate : 74 b/s
Count of elements : 1847
Stream size : 55.7 KiB (0%)
Language : English
Default : No
Forced : No





1 个附件 售价 大小 下载 时间

The.Best.of.Times.1986.1080p.AMZN.WEBRip.DD2.0.x264-monkee.torrent 0 金币 49.41K 147 次 5天前

#1楼
发帖时间:2019-12-03 23:04:27   |   回复数:2
pokuan909
武林高手
多谢分享
5天前 #2楼
911degrees
隐世仙人♂
非常感谢,谢谢分享
4天前 #3楼
游客组