coor
武林高手

[更 早] [欧美] [喜剧] [WEB-1080P] 保姆先生/妙胆雄风 Mr.Nanny.1993.1080p.AMZN.WEBRip.DD2.0.x264-monkee 8.36GB

-->

帖子完整标题:保姆先生/妙胆雄风 Mr.Nanny.1993.1080p.AMZN.WEBRip.DD2.0.x264-monkee 8.36GB




◎译  名 保姆先生 / 妙胆雄风
◎片  名 Mr. Nanny
◎年  代 1993
◎产  地 美国
◎类  别 喜剧 / 动作 / 家庭
◎语  言 英语 / 德语
◎上映日期 1993-04-02
◎IMDb评分 3.8/10 from 8515 users
◎IMDb链接 https://www.imdb.com/title/tt0107612
◎豆瓣评分 6.5/10 from 143 users
◎豆瓣链接 https://movie.douban.com/subject/1303125/
◎片  长 84 分钟
◎导  演 麦可戈特利布 (Michael Gottlieb)
◎编  剧 Edward Rugoff / 麦可戈特利布 (Michael Gottlieb)
◎主  演 Terry 'Hulk' Hogan
      Robert Gorman
      Madeline Zima
      Austin Pendleton
      Sherman Hemsley
      David Johansen


◎标  签 美国 | 喜剧 | 美国电影 | 家庭 | 温情 | 轻松幽默 | 电影 | 小孩子。

◎简  介

  曾经的摔角名将西恩现在是一名无业人员,在好朋友伯特的邀请下,他同意为一家公司的高管马森做私人保镖。但当西恩来到马森家后才发现,他的工作是保护马森的两个孩子:埃里克斯和凯特。
  马森研制了一枚电脑芯片,黑帮头目桑纳托斯想要购买,遭到了马森的拒绝。于是桑纳托斯便放出话来,如果马森不肯交出芯片,便要在他的两个孩子身上下手。自从妻子去世后,忙碌的马森已经很久没有和孩子们交流感情了。尽管生活富足,但对于两个孩子来说在感情方面极为空虚。为了排解无聊的情绪并引起父亲的注意,他们将精力都放在整治保姆上。于是马森家的保姆频繁更换,没有人能受得了这两个小捣蛋鬼,因此马森才想到雇佣西恩来贴身照顾并保护孩子。
  西恩原本就讨厌孩子,在来到马森家后又屡次被两个孩子捉弄,他的忍耐即将到达极限。但同时西恩也很同情他们,想到自己小时候,西恩决定好好教育两个孩子。在经历了一番斗智斗勇后,孩子们发现这个大块头似乎没有想象中的那么讨厌。他不仅忍受了各种恶作剧,还在马森忙碌的时候负责哄凯特睡觉,在埃里克斯受到同学欺负的时候给他勇气教他如何面对挫折。渐渐地,两个孩子开始喜欢上西恩,并和他成为形影不离的好朋友。
  然而桑纳托斯可没有足够的耐心,在几次盗取电脑芯片无果的情况下,桑纳托斯买通了马森的保安主管弗兰克,并将马森骗出家门。面对桑纳托斯的各种折磨马森誓死不肯说出芯片的下落,气急败坏的桑纳托斯命手下冲进马森家,趁西恩不备劫持了两个孩子并将西恩打晕。
  在桑纳托斯的威胁下,聪明的埃里克斯将藏有芯片的假信息告诉了他。考虑到此刻警察正在马森家展开调查,桑纳托斯只得命令埃里克斯拨通了西恩的电话,并要求他带着芯片来换回人质。西恩乘坐快艇来到了桑纳托斯藏匿的地点,在伯特的帮助下与桑纳托斯的手下展开殊死搏斗。最终桑纳托斯及其手下全部被西恩制服,马森一家也成功获救。此刻马森说出了藏芯片的真正地点,就是凯特怀中抱着的娃娃身上。经历了这一切后,马森深深感受到两个孩子带给他的温暖和惊喜。他决定减少工作,将更多的时间用在陪伴孩子身上。西恩作为最大功臣,也被邀请留在马森家长期和他们生活在一起。尽管西恩放荡不羁,但他也深爱两个孩子,终于接受了他们的邀请,成为了这个家庭的一员。
Video
ID : 1
Format : AVC
Format/Info : Advanced Video Codec
Format profile : [email protected]
Format settings : CABAC / 4 Ref Frames
Format settings, CABAC : Yes
Format settings, Reference frames : 4 frames
Codec ID : V_MPEG4/ISO/AVC
Duration : 1 h 23 min
Bit rate mode : Variable
Bit rate : 14.1 Mb/s
Maximum bit rate : 15.0 Mb/s
Width : 1 920 pixels
Height : 1 080 pixels
Display aspect ratio : 16:9
Frame rate mode : Constant
Frame rate : 23.976 (24000/1001) FPS
Color space : YUV
Chroma subsampling : 4:2:0
Bit depth : 8 bits
Scan type : Progressive
Bits/(Pixel*Frame) : 0.283
Stream size : 8.23 GiB (98%)
Writing library : x264 core 148 r2623 d5b2374
Encoding settings : cabac=1 / ref=4 / deblock=1:-1:-1 / analyse=0x3:0x133 / me=umh / subme=9 / psy=1 / psy_rd=1.00:0.15 / mixed_ref=1 / me_range=24 / chroma_me=1 / trellis=2 / 8x8dct=1 / cqm=0 / deadzone=21,11 / fast_pskip=1 / chroma_qp_offset=-3 / threads=34 / lookahead_threads=5 / sliced_threads=0 / nr=150 / decimate=1 / interlaced=0 / bluray_compat=0 / constrained_intra=0 / bframes=8 / b_pyramid=2 / b_adapt=2 / b_bias=0 / direct=3 / weightb=1 / open_gop=0 / weightp=2 / keyint=120 / keyint_min=61 / scenecut=0 / intra_refresh=0 / rc_lookahead=120 / rc=crf / mbtree=1 / crf=18.0 / qcomp=0.60 / qpmin=0 / qpmax=69 / qpstep=4 / vbv_maxrate=15000 / vbv_bufsize=31250 / crf_max=0.0 / nal_hrd=vbr / filler=0 / ip_ratio=1.40 / aq=3:1.00
Default : Yes
Forced : No
Color range : Limited
Color primaries : BT.709
Transfer characteristics : BT.709
Matrix coefficients : BT.709

Audio
ID : 2
Format : E-AC-3
Format/Info : Enhanced AC-3
Commercial name : Dolby Digital Plus
Codec ID : A_EAC3
Duration : 1 h 23 min
Bit rate mode : Constant
Bit rate : 224 kb/s
Channel(s) : 2 channels
Channel layout : L R
Sampling rate : 48.0 kHz
Frame rate : 31.250 FPS (1536 SPF)
Compression mode : Lossy
Stream size : 134 MiB (2%)
Language : English
Service kind : Complete Main
Default : Yes
Forced : No

Text
ID : 3
Format : UTF-8
Codec ID : S_TEXT/UTF8
Codec ID/Info : UTF-8 Plain Text
Duration : 1 h 23 min
Bit rate : 57 b/s
Count of elements : 1503
Stream size : 35.4 KiB (0%)
Language : English
Default : No
Forced : No





1 个附件 售价 大小 下载 时间

Mr.Nanny.1993.1080p.AMZN.WEBRip.DD2.0.x264-monkee.torrent 0 金币 42.34K 154 次 5天前

#1楼
发帖时间:2019-12-03 23:10:32   |   回复数:1
911degrees
隐世仙人♂
非常感谢,谢谢分享
5天前 #2楼
游客组