travismk
一代宗师

[2016] [其他] [恐怖] [BD-1080P] 爱宠/宠物情劫 Pet.2016.1080p.BluRay.X264-AMIABLE 7.65GB

-->

帖子完整标题:爱宠/宠物情劫 Pet.2016.1080p.BluRay.X264-AMIABLE 7.65GB



◎译  名 爱宠/宠物情劫(台)
◎片  名 Pet
◎年  代 2016
◎产  地 西班牙,美国
◎类  别 恐怖
◎语  言 英语
◎上映日期 2016-03-11(西南偏南电影节) / 2016-12-02(美国)
◎IMDb评分 5.7/10 from 15627 users
◎IMDb链接 https://www.imdb.com/title/tt1183374/
◎豆瓣评分 6.0/10 from 5763 users
◎豆瓣链接 https://movie.douban.com/subject/3012033/
◎片  长 94分钟
◎导  演 卡莱斯·托伦斯 Carles Torrens
◎编  剧 杰瑞米·斯莱特 Jeremy Slater
◎主  演 多米尼克·莫纳汉 Dominic Monaghan
      克塞尼亚·索罗 Ksenia Solo
      詹妮特·麦柯迪 Jennette McCurdy
      达旺·麦克唐纳 Da'Vone McDonald
      内森·帕森斯 Nathan Parsons
      珍妮特·桑 Janet Song
      加里·J·滕尼克利夫 Gary J. Tunnicliffe
      丹尼斯·加西亚 Denise Garcia
      约翰·罗斯·鲍伊 John Ross Bowie
      肖恩·布莱克默 Sean Blakemore
      艾琳·罗森 Irene Roseen
      阿拉斯代尔·马丁 Alasdair Martin
      哈莫尼·麦克利戈特 Harmony McElligott
      瑞秋·鲁滨逊 Rachel Robinson
      卡莱斯·托伦斯 Carles Torrens

◎标  签 惊悚 | 犯罪 | 恐怖 | 美国 | 悬疑 | 心理 | 囚禁 | 血腥

◎简  介

  《峰回路转》卡里斯陶伦斯执导,《魔戒三部曲》多明尼克莫纳罕、《黑天鹅》柯赛妮亚索罗主演。BDSM结合笼女监禁题材,惊狂混血出击,让我养你一辈子!
  
  超有爱心的赛斯在动物之家工作,他每天细心呵护小动物,对于只有基本工资的日子也甘之如饴。某天她在公车上巧遇学生时期的暗恋对象荷莉,她清新亮丽的气质让赛斯内心中沉寂多年的欲望再次被唤醒。
  
  赛斯企图要拉近与荷莉之间的距离,可是郎有情妹无意。没想到两人久别重逢的首次见面,荷莉竟然失去意识,清醒后她发现自己衣不蔽体,还被关在动物之家地下室的铁笼之中!爱到失去理智的赛斯口口声声表示会这么做,一切都是因为深爱着荷莉。然而,被受困笼中的荷莉也不是省油的灯,各怀鬼胎的两人随即展开惊悚离奇的对峙……
  
  经典的猫捉老鼠游戏,刻画出尔虞我诈的主从之战。究竟谁是主人、谁是宠物,不到最后谁也不知道!

Video
ID : 1
Format : AVC
Format/Info : Advanced Video Codec
Format profile : [email protected]
Format settings : CABAC / 5 Ref Frames
Format settings, CABAC : Yes
Format settings, Reference frames : 5 frames
Codec ID : V_MPEG4/ISO/AVC
Duration : 1 h 33 min
Bit rate : 10.2 Mb/s
Width : 1 920 pixels
Height : 808 pixels
Display aspect ratio : 2.40:1
Frame rate mode : Constant
Frame rate : 23.976 (24000/1001/189150) FPS
Color space : YUV
Chroma subsampling : 4:2:0
Bit depth : 8 bits
Scan type : Progressive
Bits/(Pixel*Frame) : 0.273
Stream size : 6.51 GiB (85%)
Writing library : x264 core 148 r2762+10 5d7902f / tmod 5d7902f X86_64
Encoding settings : cabac=1 / ref=5 / deblock=1:-3:-3 / analyse=0x3:0x113 / me=umh / subme=11 / psy=1 / fade_compensate=0.00 / psy_rd=1.05:0.15 / mixed_ref=1 / me_range=48 / chroma_me=1 / trellis=2 / 8x8dct=1 / cqm=0 / deadzone=6,6 / fast_pskip=0 / chroma_qp_offset=-3 / threads=12 / lookahead_threads=3 / sliced_threads=0 / nr=0 / decimate=0 / interlaced=0 / bluray_compat=0 / constrained_intra=0 / fgo=0 / bframes=11 / b_pyramid=2 / b_adapt=2 / b_bias=0 / direct=3 / weightb=1 / open_gop=0 / weightp=2 / keyint=250 / keyint_min=23 / scenecut=40 / intra_refresh=0 / rc=2pass / mbtree=0 / bitrate=10160 / ratetol=1.0 / qcomp=0.70 / qpmin=0:0:0 / qpmax=69:69:69 / qpstep=4 / cplxblur=20.0 / qblur=0.5 / ip_ratio=1.10 / pb_ratio=1.10 / aq=3:0.75 / aq-sensitivity=10.00 / aq-factor=1.00:1.00:1.00 / aq2=0 / aq3=0
Language : English
Default : Yes
Forced : No

Audio
ID : 2
Format : DTS
Format/Info : Digital Theater Systems
Codec ID : A_DTS
Duration : 1 h 33 min
Bit rate mode : Constant
Bit rate : 1 509 kb/s
Channel(s) : 6 channels
Channel layout : C L R Ls Rs LFE
Sampling rate : 48.0 kHz
Frame rate : 93.750 FPS (512 SPF)
Bit depth : 24 bits
Compression mode : Lossy
Stream size : 1 014 MiB (13%)
Language : English
Default : Yes
Forced : No

Text #1
ID : 3
Format : UTF-8
Codec ID : S_TEXT/UTF8
Codec ID/Info : UTF-8 Plain Text
Title : English
Language : English
Default : No
Forced : No

Text #2
ID : 4
Format : UTF-8
Codec ID : S_TEXT/UTF8
Codec ID/Info : UTF-8 Plain Text
Title : English (SDH)
Language : English
Default : No
Forced : No

Menu
00:00:00.000 : en:00:00:00.000
00:05:02.302 : en:00:05:02.302
00:10:58.950 : en:00:10:58.950
00:17:11.197 : en:00:17:11.197
00:23:07.261 : en:00:23:07.261
00:29:25.639 : en:00:29:25.639
00:36:22.889 : en:00:36:22.889
00:42:04.897 : en:00:42:04.897
00:46:25.866 : en:00:46:25.866
00:51:35.467 : en:00:51:35.467
00:55:40.837 : en:00:55:40.837
01:01:53.126 : en:01:01:53.126
01:08:56.966 : en:01:08:56.966
01:15:48.586 : en:01:15:48.586
01:21:51.573 : en:01:21:51.573
01:30:39.184 : en:01:30:39.184





1 个附件 售价 大小 下载 时间

Pet.2016.1080p.BluRay.X264-AMIABLE.zip 0 金币 77.23K 784 次 1月前

#1楼
发帖时间:2020-12-04 09:00:43   |   回复数:0
游客组