travismk
一代宗师

[更 早] [其他] [剧情] [BD-1080P] 见证人/纳粹天国阿门 Amen.2002.1080p.BluRay.X264-AMIABLE 8.74GB

-->

帖子完整标题:见证人/纳粹天国阿门 Amen.2002.1080p.BluRay.X264-AMIABLE 8.74GB



◎译  名 见证人/纳粹天国阿门(港)/阿门
◎片  名 Amen.
◎年  代 2002
◎产  地 法国,德国,罗马尼亚
◎类  别 剧情 / 战争 / 犯罪
◎语  言 法语,德语,英语,意大利语
◎上映日期 2002-02-27
◎IMDb评分 7.2/10 from 13408 users
◎IMDb链接 https://www.imdb.com/title/tt0280653/
◎豆瓣评分 7.7/10 from 317 users
◎豆瓣链接 https://movie.douban.com/subject/1466079/
◎片  长 132 分钟
◎导  演 科斯塔-加夫拉斯 Costa-Gavras
◎编  剧 科斯塔-加夫拉斯 Costa-Gavras / Rolf Hochhuth / 让-克劳德·古卢姆伯格 Jean-Claude Grumberg
◎主  演 马修·卡索维茨 Mathieu Kassovitz
      乌尔里希·图库尔 Ulrich Tukur
      乌尔里希·穆埃 Ulrich Mühe
      米歇尔·门德尔 Michael Mendl
      马库斯·赫林 Markus Hering
      Dorina Lazar
      海因茨·格哈德·吕克 Heinz Gerhard Lueck
      乔治·伊瓦斯库 George Ivascu
      安格斯·麦金尼斯 Angus MacInnes
      Marin Moraru
      Alexandru Repan
      Antje Schmidt
      塞巴斯蒂安·科赫 Sebastian Koch
      Dorina Chiriac
      Andrei Gheorghe
      弗里德里希·冯·图恩 Friedrich von Thun
      Valentin Teodosiu
      加布里埃尔·斯巴修 Gabriel Spahiu
      娜塔莎·拉布 Natasa Raab
      辛纳克·勋纳曼 Hinnerk Sch?nemann
      冈瑟尔·马里·哈默 Günther Maria Halmer
      Erich Hallhuber
      Bernd Fischerauer
      马提亚斯·科布林 Matthias Koeberlin
      扬·卡拉米特鲁 Ion Caramitru
      玛琳娜·伯蒂 Marina Berti
      霍拉丘·默勒埃莱 Hora?iu M?l?ele
      马塞尔·尤勒斯 Marcel Iures
      妮娜·普罗尔 Nina Proll
      奥古斯特·席纳 August Zirner
      汉斯·齐施勒 Hanns Zischler
      Alexander Geringas
      尤斯图斯·冯·多赫纳尼 Justus von Dohnányi
      苏珊娜·洛塔尔 Susanne Lothar
      Burkhard Heyl
      杰奥·多布雷 Geo Dobre
      米歇尔·迪绍苏瓦 Michel Duchaussoy
      Andrei Finti
      西奥多·丹内蒂 Theodor Danetti
      Ovidiu Cuncea
      Florin Kevorkian
      拉杜·班泽鲁 Radu Banzaru
      莫妮卡·布莱布特罗伊 Monica Bleibtreu
      Pierre Franckh
      Andrei Boncea

◎标  签 德国 | 二战 | 战争 | 人性 | 法国 | 德国电影 | CostaGavras | 电影

◎简  介

  根据德国作家Rolf Hochhuth舞台剧《The Deputy》改编,党卫军上尉Kurt Gerstein发现自己为净化水源而合成的化学药剂成为杀人毒气时深感震惊,想要把这种罪行告上中立国或教廷。天主教神父Riccardo是惟一愿意帮助他的人。然而两人的力量不但未能阻止悲剧的发生,还成为了历史车轮下的牺牲品。

◎获奖情况

  第52届柏林国际电影节 ?(2002)
  金熊奖最佳影片(提名) 科斯塔-加夫拉斯

Video
ID : 1
Format : AVC
Format/Info : Advanced Video Codec
Format profile : [email protected]
Format settings : CABAC / 4 Ref Frames
Format settings, CABAC : Yes
Format settings, Reference frames : 4 frames
Codec ID : V_MPEG4/ISO/AVC
Duration : 2 h 11 min
Bit rate : 8 010 kb/s
Width : 1 920 pixels
Height : 1 048 pixels
Display aspect ratio : 1.85:1
Frame rate mode : Constant
Frame rate : 23.976 (24000/1001/189150) FPS
Color space : YUV
Chroma subsampling : 4:2:0
Bit depth : 8 bits
Scan type : Progressive
Bits/(Pixel*Frame) : 0.166
Stream size : 7.18 GiB (82%)
Writing library : x264 core 146 r2538 121396c
Encoding settings : cabac=1 / ref=4 / deblock=1:-3:-3 / analyse=0x3:0x113 / me=umh / subme=8 / psy=1 / psy_rd=1.00:0.00 / mixed_ref=1 / me_range=16 / chroma_me=1 / trellis=1 / 8x8dct=1 / cqm=0 / deadzone=21,11 / fast_pskip=1 / chroma_qp_offset=-2 / threads=24 / lookahead_threads=4 / sliced_threads=0 / nr=0 / decimate=1 / interlaced=0 / bluray_compat=0 / constrained_intra=0 / bframes=3 / b_pyramid=2 / b_adapt=2 / b_bias=0 / direct=3 / weightb=1 / open_gop=0 / weightp=2 / keyint=240 / keyint_min=24 / scenecut=40 / intra_refresh=0 / rc_lookahead=50 / rc=2pass / mbtree=1 / bitrate=8010 / ratetol=1.0 / qcomp=0.60 / qpmin=0 / qpmax=69 / qpstep=4 / cplxblur=20.0 / qblur=0.5 / ip_ratio=1.40 / aq=1:1.00
Language : English
Default : Yes
Forced : No

Audio
ID : 2
Format : DTS
Format/Info : Digital Theater Systems
Codec ID : A_DTS
Duration : 2 h 11 min
Bit rate mode : Constant
Bit rate : 1 509 kb/s
Channel(s) : 6 channels
ChannelLayout_Original : C L R Ls Rs LFE
Sampling rate : 48.0 kHz
Frame rate : 93.750 FPS (512 SPF)
Bit depth : 24 bits
Compression mode : Lossy
Stream size : 1.39 GiB (16%)
Language : English
Default : Yes
Forced : No

Menu
00:00:00.000 : en:00:00:00.000
00:10:37.595 : en:00:10:37.595
00:19:02.266 : en:00:19:02.266
00:29:33.772 : en:00:29:33.772
00:39:21.317 : en:00:39:21.317
00:49:06.360 : en:00:49:06.360
00:59:00.871 : en:00:59:00.871
01:07:52.652 : en:01:07:52.652
01:18:07.808 : en:01:18:07.808
01:28:24.591 : en:01:28:24.591
01:38:11.052 : en:01:38:11.052
01:47:12.885 : en:01:47:12.885
01:58:40.155 : en:01:58:40.155
02:06:58.820 : en:02:06:58.820





1 个附件 售价 大小 下载 时间

Amen.2002.1080p.BluRay.X264-AMIABLE.zip 0 金币 88.07K 756 次 1月前

#1楼
发帖时间:2020-12-04 09:19:52   |   回复数:0
游客组