fg603603
武林盟主

[更 早] [其他] [剧情] [BD-1080P] 莱昂莫汉神父 Leon.Morin.Priest.1961.DC.1080p.BluRay.x264-USURY 13.12GB

-->

帖子完整标题:莱昂莫汉神父 Leon.Morin.Priest.1961.DC.1080p.BluRay.x264-USURY 13.12GB



◎译  名 莱昂莫汉神父/Leon Morin, Priest/The Forgiven Sinner/神父莱昂莫林
◎片  名 Léon Morin, prêtre
◎年  代 1961
◎产  地 法国,意大利
◎类  别 剧情
◎语  言 法语
◎上映日期 1961-09-22
◎IMDb评分 7.6/10 from 4174 users
◎IMDb链接 https://www.imdb.com/title/tt0055082/
◎豆瓣评分 8.3/10 from 1698 users
◎豆瓣链接 https://movie.douban.com/subject/1466412/
◎片  长 Sweden: 130 分钟
◎导  演 让-皮埃尔·梅尔维尔 Jean-Pierre Melville
◎编  剧 让-皮埃尔·梅尔维尔 Jean-Pierre Melville / Béatrix Beck
◎主  演 让-保罗·贝尔蒙多 Jean-Paul Belmondo
      埃玛妞·丽娃 Emmanuelle Riva
      伊雷娜·通克 Irène Tunc
      帕特丽夏·盖兹 Patricia Gozzi
      马克·埃罗 Marc Eyraud
      格雷德·布尔 Gérard Buhr
      霍华德·沃侬 Howard Vernon
      沃尔克·施隆多夫 Volker Schl?ndorff

◎标  签 法国 | 梅尔维尔 | 宗教 | 让-皮埃尔·梅尔维尔 | 法国电影 | 1961 | 1960s | Jean-Pierre_Melville

◎简  介

  一个年轻英俊的神父引起了一个名叫芭妮的年轻寡妇(莉瓦)的注意。芭妮富有魅力而且风趣,是一个共产主义者和不可知论者。一天,芭妮一时兴起进入了莫汉神父所在的教堂,在告解室里激烈的批评莫汉的信仰。但又被他的回答所吸引,芭妮于是跟神父建立了一种双方趋于理解的关系,尽管莫汉尽其所能令芭妮信仰天主教,但是……

Video
ID : 1
Format : AVC
Format/Info : Advanced Video Codec
Format profile : [email protected]
Format settings : CABAC / 4 Ref Frames
Format settings, CABAC : Yes
Format settings, Reference frames : 4 frames
Codec ID : V_MPEG4/ISO/AVC
Duration : 2 h 8 min
Bit rate : 13.9 Mb/s
Width : 1 792 pixels
Height : 1 080 pixels
Display aspect ratio : 5:3
Frame rate mode : Constant
Frame rate : 24.000 FPS
Color space : YUV
Chroma subsampling : 4:2:0
Bit depth : 8 bits
Scan type : Progressive
Bits/(Pixel*Frame) : 0.298
Stream size : 12.4 GiB (95%)
Writing library : x264 core 157 r2969 d4099dd
Encoding settings : cabac=1 / ref=4 / deblock=1:-3:-3 / analyse=0x3:0x133 / me=umh / subme=9 / psy=1 / psy_rd=1.00:0.00 / mixed_ref=1 / me_range=16 / chroma_me=1 / trellis=2 / 8x8dct=1 / cqm=0 / deadzone=21,11 / fast_pskip=0 / chroma_qp_offset=-2 / threads=18 / lookahead_threads=1 / sliced_threads=0 / nr=0 / decimate=1 / interlaced=0 / bluray_compat=0 / constrained_intra=0 / bframes=3 / b_pyramid=2 / b_adapt=1 / b_bias=0 / direct=3 / weightb=1 / open_gop=0 / weightp=2 / keyint=240 / keyint_min=24 / scenecut=40 / intra_refresh=0 / rc_lookahead=50 / rc=2pass / mbtree=1 / bitrate=13853 / ratetol=1.0 / qcomp=0.60 / qpmin=0 / qpmax=69 / qpstep=4 / cplxblur=20.0 / qblur=0.5 / ip_ratio=1.40 / aq=1:1.00
Language : English
Default : Yes
Forced : No

Audio
ID : 2
Format : DTS
Format/Info : Digital Theater Systems
Codec ID : A_DTS
Duration : 2 h 8 min
Bit rate mode : Constant
Bit rate : 768 kb/s
Channel(s) : 2 channels
Channel layout : L R
Sampling rate : 48.0 kHz
Frame rate : 93.750 FPS (512 SPF)
Bit depth : 24 bits
Compression mode : Lossy
Stream size : 706 MiB (5%)
Language : French
Default : Yes
Forced : No

Text
ID : 3
Format : UTF-8
Codec ID : S_TEXT/UTF8
Codec ID/Info : UTF-8 Plain Text
Duration : 2 h 7 min
Bit rate : 58 b/s
Count of elements : 1322
Stream size : 54.3 KiB (0%)
Title : English
Language : English
Default : Yes
Forced : Yes

Menu
00:00:00.000 : en:00:00:00.000
00:10:03.667 : en:00:10:03.667
00:22:28.000 : en:00:22:28.000
00:33:38.833 : en:00:33:38.833
00:44:13.042 : en:00:44:13.042
00:53:31.000 : en:00:53:31.000
01:04:17.958 : en:01:04:17.958
01:14:54.542 : en:01:14:54.542
01:24:29.083 : en:01:24:29.083
01:33:39.667 : en:01:33:39.667
01:43:30.708 : en:01:43:30.708
01:56:30.917 : en:01:56:30.917





1 个附件 售价 大小 下载 时间

Leon.Morin.Priest.1961.DC.1080p.BluRay.x264-USURY.zip 0 金币 66.32K 700 次 1月前

#1楼
发帖时间:2020-12-04 09:52:28   |   回复数:0
游客组